<?xml version="1.0" standalone="no"?>
<!DOCTYPE svg PUBLIC "-//W3C//DTD SVG 1.1//EN" "http://www.w3.org/Graphics/SVG/1.1/DTD/svg11.dtd" >
<svg xmlns="http://www.w3.org/2000/svg">
<metadata>Generated by IcoMoon</metadata>
<defs>
<font id="icomoon" horiz-adv-x="1024">
<font-face units-per-em="1024" ascent="960" descent="-64" />
<missing-glyph horiz-adv-x="1024" />
<glyph unicode="&#x20;" horiz-adv-x="512" d="" />
<glyph unicode="&#xe900;" glyph-name="edit" horiz-adv-x="1031" d="M640.739 789.006l209.024-209.255-529.116-529.733-209.024 209.255zM1008.652 839.449l-93.328 93.328c-16.761 16.818-39.946 27.223-65.561 27.223s-48.801-10.405-65.558-27.22l-0.003-0.003-88.7-89.394 209.024-209.255 104.126 104.281c12.88 12.952 20.841 30.806 20.841 50.52s-7.961 37.569-20.844 50.524l0.003-0.003zM2.099-35.057c-0.376-1.582-0.593-3.397-0.593-5.264 0-13.077 10.601-23.679 23.679-23.679 1.934 0 3.814 0.232 5.614 0.67l-0.162-0.033 232.935 56.536-209.024 209.255z" />
<glyph unicode="&#xe901;" glyph-name="private" horiz-adv-x="848" d="M821.205 576.129h-70.164v84.976c-15.611 168.222-156.066 298.895-327.042 298.895s-311.431-130.672-326.944-297.596l-0.097-1.299v-84.976h-70.164c-0.016 0-0.034 0-0.052 0-12.369 0-22.494-9.6-23.332-21.756l-0.004-0.073v-532.466c2.228-47.868 41.578-85.834 89.797-85.834 1.321 0 2.635 0.029 3.942 0.085l-0.186-0.006h654.083c1.12-0.050 2.435-0.078 3.756-0.078 48.218 0 87.569 37.966 89.789 85.635l0.007 0.199v532.466c-0.468 12.16-10.439 21.84-22.671 21.84-0.252 0-0.504-0.004-0.754-0.012l0.037 0.001zM493.774 130.198c0.125-0.824 0.196-1.775 0.196-2.742 0-5.324-2.161-10.144-5.653-13.629v0c-4.368-4.337-10.384-7.017-17.027-7.017-0.044 0-0.087 0-0.131 0h-93.545c-0.336-0.019-0.729-0.029-1.124-0.029-6.335 0-12.037 2.708-16.013 7.030l-0.014 0.016c-3.893 3.651-6.318 8.827-6.318 14.57 0 0.634 0.030 1.262 0.087 1.881l-0.006-0.079 14.812 121.617c-22.909 14.291-37.981 39.274-38.2 67.793v0.033c0 51.668 41.884 93.552 93.552 93.552s93.552-41.884 93.552-93.552v0c-0.587-28.456-15.537-53.296-37.873-67.628l-0.328-0.197zM610.714 576.129h-373.428v84.976c6.529 98.007 87.626 175.033 186.714 175.033s180.184-77.025 186.684-174.466l0.031-0.566v-84.976z" />
<glyph unicode="&#xe902;" glyph-name="videos" d="M1017.787 434.314c-7.449 12.331-20.781 20.448-36.008 20.448-8.079 0-15.625-2.285-22.026-6.244l-140.099-80.767-35.707-21.151v-194.089l33.219-19.907c1.244 0 1.244-1.244 2.488-1.244l137.853-80.248c6.163-4.668 13.959-7.477 22.41-7.477 0.323 0 0.644 0.004 0.965 0.013l-0.048-0.001c0.038 0 0.084 0 0.128 0 23.053 0 41.742 18.689 41.742 41.742 0 0.197-0.001 0.394-0.004 0.59v-0.030 164.852l1.244 162.363c0.035 0.57 0.055 1.235 0.055 1.906 0 7.227-2.33 13.91-6.279 19.339l0.065-0.094zM198.133 496.522c109.426 0 198.133 88.707 198.133 198.133s-88.707 198.133-198.133 198.133c-109.316 0-197.956-88.53-198.133-197.805v-0.017c0-0.055 0-0.122 0-0.187 0-109.45 88.692-198.186 198.126-198.257h0.007zM198.133 775.837c44.836 0 81.182-36.346 81.182-81.182s-36.346-81.182-81.182-81.182v0c-44.717 0.591-80.794 36.754-81.244 81.45v0.043c-0.009 0.432-0.014 0.941-0.014 1.451 0 43.873 35.567 79.44 79.44 79.44 0.639 0 1.276-0.008 1.912-0.022l-0.094 0.002zM700.277 485.947c-31.008-16.464-67.795-26.131-106.84-26.131-47.266 0-91.222 14.166-127.855 38.484l0.855-0.534h-140.279c-35.927-23.785-80.030-37.948-127.441-37.948-0.205 0-0.41 0-0.615 0.001h0.032c-0.61-0.006-1.332-0.010-2.054-0.010-37.986 0-73.71 9.68-104.841 26.709l1.141-0.572c-28.623-17.011-47.604-47.611-48.024-82.677l-0.001-0.060v-300.465c0.246-54.871 44.662-99.287 99.51-99.533h505.838c54.885 0.211 99.322 44.648 99.533 99.513v300.486c-1.414 35.075-20.483 65.404-48.512 82.484l-0.446 0.253zM594.523 496.522c109.426 0 198.133 88.707 198.133 198.133s-88.707 198.133-198.133 198.133c-109.316 0-197.956-88.53-198.133-197.805v-0.017c0-0.055 0-0.122 0-0.187 0-109.407 88.621-198.115 197.995-198.257h0.014zM594.523 775.837c44.836 0 81.182-36.346 81.182-81.182s-36.346-81.182-81.182-81.182v0c-44.704 0.591-80.767 36.762-81.182 81.453v0.040c-0.002 0.224-0.004 0.488-0.004 0.752 0 44.251 35.873 80.124 80.124 80.124 0.33 0 0.658-0.002 0.987-0.006h-0.050z" />
<glyph unicode="&#xe903;" glyph-name="pictures" d="M298.688 621.918c-0.983-46.375-38.809-83.594-85.329-83.594-47.136 0-85.346 38.211-85.346 85.346 0 47.13 38.201 85.336 85.328 85.346h0.001c47.246-0.509 85.351-38.929 85.351-86.247 0-0.3-0.002-0.599-0.005-0.899v0.046zM896.003 839.102h-768.007c-70.826-0.638-127.995-58.202-127.995-129.118 0-0.34 0.001-0.679 0.004-1.018v0.052-521.47c0-2.827 0.566-5.090 0.736-7.353-0.204-1.36-0.32-2.929-0.32-4.526 0-3.852 0.677-7.546 1.918-10.969l-0.071 0.224c10.307-61.161 62.523-107.284 125.651-108.026l0.079-0.001h768.007c70.887 0.924 127.996 58.604 127.996 129.622 0 0.362-0.001 0.723-0.004 1.084v-0.056 521.47c0.002 0.287 0.004 0.626 0.004 0.966 0 70.917-57.169 128.479-127.935 129.118h-0.061zM127.995 752.002h768.007c23.604-0.096 42.702-19.254 42.702-42.871 0-0.040 0-0.080 0-0.119v0.006-345.007l-224.424 228.496c-13.503 13.623-32.222 22.058-52.911 22.058s-39.408-8.435-52.905-22.052l-0.005-0.005-203.102-207.004-53.787 54.862c-13.503 13.623-32.222 22.058-52.911 22.058s-39.408-8.435-52.905-22.052l-0.005-0.005-160.4-163.454v432.107c0 0.051 0 0.11 0 0.17 0 23.586 19.073 42.718 42.636 42.815h0.009z" />
<glyph unicode="&#xe904;" glyph-name="add_friends" d="M841.090 960h-658.179c-100.959-0.161-182.754-81.981-182.875-182.934v-658.191c0.121-100.95 81.924-182.754 182.863-182.875h658.19c100.95 0.121 182.754 81.924 182.875 182.863v658.191c-0.121 100.964-81.916 182.784-182.859 182.946h-0.016zM734.932 411.376h-186.201v-186.272c0-20.208-16.382-36.589-36.589-36.589s-36.589 16.382-36.589 36.589v0 186.201h-186.272c-19.503 0.885-34.98 16.912-34.98 36.554s15.477 35.669 34.901 36.551l0.079 0.003h186.272v186.272c0 20.208 16.382 36.589 36.589 36.589s36.589-16.382 36.589-36.589v0-186.272h186.201c0.447 0.020 0.972 0.031 1.499 0.031 20.208 0 36.589-16.382 36.589-36.589s-16.382-36.589-36.589-36.589c-0.602 0-1.2 0.015-1.795 0.043l0.084-0.003z" />
<glyph unicode="&#xe905;" glyph-name="send_message" d="M512.329 935.175c-282.506 0-512.33-207.039-512.33-461.492 0.342-93.873 30.919-180.539 82.492-250.839l-0.835 1.194c-0.629-87.93-29.173-169.071-77.196-235.14l0.808 1.167c-3.156-3.078-5.113-7.37-5.113-12.121 0-2.785 0.673-5.413 1.864-7.729l-0.044 0.095c2.671-5.648 8.322-9.485 14.869-9.485 0.098 0 0.194 0.001 0.291 0.002h2.62c105.826 16.071 201.143 48.029 288.165 93.659l-5.001-2.388c61.361-25.415 132.62-40.174 207.326-40.174 0.733 0 1.465 0.001 2.197 0.004h-0.114c281.847 0 511.671 207.039 511.671 461.492s-229.824 461.755-511.671 461.755zM273.286 405.329c-0.156-0.001-0.342-0.002-0.527-0.002-37.751 0-68.355 30.604-68.355 68.355s30.604 68.355 68.355 68.355c37.751 0 68.354-30.602 68.355-68.352v0c-0.146-37.508-30.363-67.91-67.786-68.355h-0.042zM512.329 405.329c-0.156-0.001-0.342-0.002-0.527-0.002-37.751 0-68.355 30.604-68.355 68.355s30.604 68.355 68.355 68.355c37.751 0 68.354-30.602 68.355-68.352v0c0-0.039 0-0.086 0-0.133 0-37.54-30.32-67.998-67.806-68.222h-0.022zM751.373 405.329c-0.156-0.001-0.342-0.002-0.527-0.002-37.751 0-68.355 30.604-68.355 68.355s30.604 68.355 68.355 68.355c37.751 0 68.354-30.602 68.355-68.352v0c0-0.039 0-0.086 0-0.133 0-37.54-30.32-67.998-67.806-68.222h-0.022z" />
<glyph unicode="&#xe906;" glyph-name="check1" d="M924.001 804.791c-5.947 5.45-13.905 8.79-22.644 8.79s-16.697-3.339-22.669-8.812l0.025 0.023-477.133-452.144c-5.803-5.777-13.806-9.349-22.644-9.349s-16.841 3.572-22.645 9.35l0.001-0.001-209.071 202.255c-5.795 5.688-13.668 9.276-22.376 9.525l-0.047 0.001c-0.134 0.002-0.293 0.003-0.452 0.003-8.821 0-16.789-3.65-22.477-9.522l-0.008-0.008-92.334-79.143c-5.831-5.255-9.491-12.822-9.527-21.245v-0.006c0.168-8.632 3.783-16.389 9.52-21.977l0.007-0.007 346.766-340.757c5.803-5.777 13.806-9.349 22.644-9.349s16.841 3.572 22.645 9.35l-0.001-0.001 613.142 582.585c5.72 5.444 9.277 13.116 9.277 21.618s-3.558 16.173-9.265 21.607l-0.012 0.012-90.722 87.204z" />
<glyph unicode="&#xe907;" glyph-name="thank_check" horiz-adv-x="1025" d="M512.417 960c-282.734-0.048-511.917-229.26-511.917-512 0-282.77 229.23-512 512-512 282.741 0 511.953 229.183 512 511.912v0.004c-0.333 282.682-229.401 511.751-512.051 512.084h-0.033zM806.397 534.49l-321.724-321.724c-13.076-13.115-31.161-21.229-51.141-21.229s-38.066 8.114-51.139 21.227l-163.956 163.956c-13.124 13.103-21.243 31.216-21.243 51.225 0 39.977 32.407 72.384 72.384 72.384 19.967 0 38.047-8.085 51.142-21.16l112.811-112.811 270.415 270.582c13.179 13.547 31.584 21.952 51.951 21.952 40.013 0 72.45-32.437 72.45-72.45 0-20.367-8.404-38.772-21.935-51.935l-0.017-0.016z" />
<glyph unicode="&#xe908;" glyph-name="close1" d="M996.090 127.226l-321.028 320.882 321.028 321.101c16.946 17.082 27.418 40.609 27.418 66.583s-10.472 49.499-27.424 66.589l0.006-0.006-29.983 29.836c-16.873 17.157-40.336 27.789-66.283 27.789-0.092 0-0.185 0-0.277 0h0.014c-0.154 0.001-0.336 0.001-0.518 0.001-25.852 0-49.228-10.606-66.014-27.703l-321.042-321.115-321.028 320.809c-17.006 17.082-40.541 27.653-66.546 27.653s-49.539-10.571-66.543-27.65l-0.003-0.003-29.983-29.617c-17.156-17.041-27.776-40.644-27.776-66.729s10.62-49.687 27.771-66.724l321.033-320.96-321.028-321.101c-16.868-17.145-27.283-40.684-27.283-66.656s10.415-49.51 27.295-66.668l-0.012 0.013 29.983-29.836c16.9-17.115 40.363-27.715 66.303-27.715 0.086 0 0.171 0 0.257 0h-0.013c25.995 0.040 49.517 10.597 66.545 27.641l321.029 321.175 321.028-320.809c17.031-17.029 40.558-27.562 66.546-27.562s49.514 10.533 66.546 27.562v0l29.983 29.763c17.17 17.021 27.801 40.615 27.801 66.692s-10.631 49.671-27.794 66.686l-0.007 0.007z" />
<glyph unicode="&#xe909;" glyph-name="error" d="M992.294 316.998l-301.996 483.999c-37.712 59.825-103.432 98.99-178.298 98.99s-140.586-39.165-177.788-98.124l-0.51-0.867-301.996-483.999c-19.897-31.513-31.706-69.858-31.706-110.962 0-115.969 93.994-209.985 209.954-210.022h603.948c0.022 0 0.049 0 0.076 0 115.991 0 210.022 94.029 210.022 210.022 0 41.103-11.808 79.449-32.217 111.83l0.51-0.869zM813.996 55.988h-603.944c-82.832 0.084-149.948 67.251-149.948 150.095 0 29.331 8.413 56.696 22.957 79.815l-0.365-0.623 301.996 483.952c26.938 42.733 73.879 70.707 127.356 70.707s100.419-27.975 126.992-70.089l0.364-0.619 301.949-483.952c14.201-22.505 22.629-49.888 22.629-79.238 0-82.847-67.142-150.012-149.981-150.048h-0.004zM588.506 737.457c-16.177 25.617-44.338 42.384-76.414 42.384s-60.236-16.766-76.195-42.013l-0.219-0.37-301.949-483.952c-8.515-13.496-13.568-29.916-13.568-47.516 0-49.696 40.286-89.982 89.982-89.983h603.944c0.002 0 0.005 0 0.008 0 49.722 0 90.029 40.307 90.029 90.029 0 17.58-5.039 33.983-13.75 47.843l0.22-0.374zM542.195 237.99h-60.205v59.973h60.205v-59.973zM542.195 357.983h-60.205v211.967h60.205v-211.967z" />
<glyph unicode="&#xe90a;" glyph-name="user" horiz-adv-x="1062" d="M675.126 390.121c95.407 52.33 159.008 152.089 159.008 266.703 0 167.438-135.736 303.175-303.175 303.175s-303.175-135.736-303.175-303.175c0-114.615 63.601-214.374 157.435-265.912l1.573-0.791c-220.015-35.313-386.078-223.788-386.078-451.050 0-1.024 0.003-2.048 0.010-3.071l-0.001 0.157h1060.553c0.006 0.841 0.009 1.837 0.009 2.834 0 227.306-166.098 415.817-383.543 450.785l-2.614 0.346z" />
<glyph unicode="&#xe90b;" glyph-name="comment_arrow" d="M957.82 465.93c-15.089-16.123-36.498-26.171-60.255-26.171-24.133 0-45.844 10.368-60.923 26.893l-0.058 0.065-243.257 261.195v-700.191c0.125-1.738 0.197-3.765 0.197-5.81 0-47.447-38.464-85.911-85.911-85.911s-85.911 38.464-85.911 85.911c0 2.045 0.071 4.072 0.212 6.081l-0.015-0.271v691.537l-234.76-252.54c-15.123-16.586-36.821-26.953-60.941-26.953-23.743 0-45.141 10.046-60.172 26.119l-0.043 0.047c-15.712 17.102-25.342 40.009-25.342 65.164 0 24.91 9.442 47.614 24.944 64.728l-0.073-0.082 264.105 283.223c45.116 49.85 110.059 81.036 182.285 81.036s137.169-31.186 182.099-80.826l0.187-0.21 264.105-283.223c15.543-16.985 25.065-39.704 25.065-64.649 0-25.189-9.711-48.109-25.594-65.222l0.056 0.061z" />
<glyph unicode="&#xe90c;" glyph-name="share" d="M808.157 277.333c-50.196 0-95.373-20.079-125.491-55.216l-311.216 175.687c5.019 15.059 10.039 30.118 10.039 50.196 0 15.059-5.019 35.137-10.039 50.196l311.216 175.687c30.118-35.137 75.294-55.216 125.491-55.216 95.373 0 170.666 75.294 170.666 170.666s-75.294 170.666-170.666 170.666-170.666-75.294-170.666-170.666c0-15.059 0-25.098 5.019-40.157l-311.216-180.706c-30.118 30.118-70.275 50.196-120.471 50.196-95.373 0-170.666-80.314-170.666-170.666 0-95.373 75.294-170.666 170.666-170.666 45.177 0 90.353 20.079 120.471 50.196l316.236-180.706c-5.019-15.059-5.019-25.098-5.019-40.157 0-95.373 75.294-170.666 170.666-170.666s170.666 75.294 170.666 170.666c0 90.353-80.314 170.666-175.687 170.666z" />
<glyph unicode="&#xe90d;" glyph-name="comments" d="M511.999 934.983c-282.232 0-512-206.938-512-461.48 0.391-93.805 30.746-180.443 81.981-250.923l-0.858 1.238c-9.715-111.241-36.918-194.308-76.265-233.655-2.946-3.15-4.754-7.396-4.754-12.063 0-2.861 0.679-5.564 1.886-7.955l-0.047 0.102c2.793-5.515 8.419-9.23 14.913-9.23 0.052 0 0.103 0 0.154 0.001h2.421c106.022 16.135 201.51 48.107 288.733 93.727l-5.044-2.402c61.353-25.507 132.62-40.321 207.346-40.321 0.539 0 1.078 0.001 1.617 0.002h-0.083c282.232 0 512 206.938 512 461.48s-229.769 461.48-512 461.48zM273.001 405.010c-37.828 0-68.493 30.665-68.493 68.493s30.665 68.493 68.493 68.493c37.828 0 68.493-30.665 68.493-68.493v0c-0.083-37.794-30.699-68.41-68.485-68.493h-0.008zM511.999 405.010c-0.144-0.001-0.315-0.002-0.486-0.002-37.828 0-68.493 30.665-68.493 68.493s30.665 68.493 68.493 68.493c37.827 0 68.492-30.664 68.493-68.491v0c-0.134-37.603-30.444-68.083-67.969-68.493h-0.039zM750.998 405.010c-0.144-0.001-0.315-0.002-0.486-0.002-37.828 0-68.493 30.665-68.493 68.493s30.665 68.493 68.493 68.493c37.827 0 68.492-30.664 68.493-68.491v0c-0.134-37.603-30.444-68.083-67.969-68.493h-0.039z" />
<glyph unicode="&#xe90e;" glyph-name="screenshots" d="M298.647 618.858c0-0.056 0-0.123 0-0.19 0-47.129-38.205-85.334-85.334-85.334s-85.334 38.205-85.334 85.334c0 47.129 38.205 85.334 85.334 85.334v0c47.027-0.086 85.139-38.132 85.334-85.125v-0.019zM895.981 832.096h-768c-70.678-0.108-127.937-57.408-127.981-128.091v-512.004c0-2.281 0.608-4.561 0.723-6.842-0.208-1.366-0.328-2.942-0.328-4.545 0-3.822 0.678-7.487 1.918-10.879l-0.070 0.219c10.868-60.477 62.974-105.807 125.712-106.049h768.026c70.643 0.215 127.847 57.447 128.019 128.079v512.016c-0.043 70.701-57.324 128.009-128.011 128.095h-0.008zM127.981 746.953h768c23.606-0.151 42.686-19.323 42.686-42.95 0 0 0-0.001 0-0.001v0-338.673l-224.452 224.641c-13.598 13.399-32.279 21.673-52.892 21.673s-39.293-8.274-52.901-21.682l0.009 0.009-203.089-203.356-53.785 53.975c-13.608 13.393-32.294 21.661-52.911 21.661s-39.302-8.269-52.921-21.671l-160.394-160.394v423.816c0 0 0 0.001 0 0.001 0 23.614 19.057 42.778 42.632 42.95h0.016z" />
<glyph unicode="&#xe90f;" glyph-name="report" d="M880.177 500.882l-230.974 173.748c-2.403 1.755-3.946 4.562-3.946 7.731 0 0.123 0.002 0.246 0.007 0.368l-0.001-0.018c0 0.010 0 0.021 0 0.032 0 2.995 1.303 5.686 3.374 7.536l0.010 0.009 231.579 174.253c12.694 9.621 20.81 24.71 20.81 41.695 0 0.080 0 0.16-0.001 0.24v-0.013c0 0.075 0.001 0.164 0.001 0.253 0 29.429-23.857 53.286-53.286 53.286 0 0 0 0-0.001 0h-682.161c0 0 0 0 0 0-23.472 0-42.514-18.97-42.628-42.416v-938.955c0-23.543 19.086-42.629 42.629-42.629s42.629 19.086 42.629 42.629v0 426.793h639.532c0.030 0 0.066 0 0.102 0 29.32 0 53.099 23.725 53.184 53.026v0.008c0.002 0.161 0.003 0.351 0.003 0.542 0 17.053-8.134 32.206-20.734 41.791l-0.129 0.094z" />
<glyph unicode="&#xe910;" glyph-name="download1" d="M776.466 515.687l-238.882-273.19c-6.3-7.134-15.469-11.61-25.681-11.61s-19.381 4.476-25.65 11.573l-0.032 0.037-238.882 273.19c-5.233 5.977-8.424 13.857-8.424 22.481 0 18.848 15.243 34.136 34.074 34.21h136.554v331.835c0 18.893 15.316 34.21 34.21 34.21v0h136.497c18.893 0 34.21-15.316 34.21-34.21v-331.835h136.497c18.775-0.155 33.935-15.411 33.935-34.209 0-8.625-3.192-16.504-8.459-22.521l0.034 0.040zM887.306 299.186v-204.77h-750.809v204.77h-136.497v-273.19c0-37.788 30.633-68.42 68.42-68.42v0h887.16c37.788 0 68.42 30.633 68.42 68.42v0 273.19h-136.547z" />
<glyph unicode="&#xe911;" glyph-name="details" d="M512 960c-282.77 0-512-229.23-512-512s229.23-512 512-512c282.77 0 512 229.23 512 512v0c0 0.062 0 0.134 0 0.207 0 282.656-229.138 511.793-511.793 511.793-0.073 0-0.146 0-0.219 0h0.012zM574.257 206.208c0.016-0.535 0.026-1.163 0.026-1.794 0-34.412-27.896-62.308-62.308-62.308s-62.308 27.896-62.308 62.308c0 0.631 0.009 1.259 0.028 1.886l-0.002-0.092v229.909c-16.927 11.101-27.951 29.988-27.951 51.449 0 0.076 0 0.152 0 0.228v-0.012c0 0.046 0 0.101 0 0.155 0 34.422 27.89 62.33 62.305 62.36h27.954c34.396-0.059 62.256-27.956 62.256-62.36 0-0.055 0-0.109 0-0.164v0.008-281.574zM512 584.912c-45.752 0.059-82.819 37.162-82.819 82.922 0 45.797 37.126 82.922 82.922 82.922 45.706 0 82.775-36.978 82.922-82.65v-0.014c0-0.031 0-0.067 0-0.103 0-45.864-37.166-83.048-83.023-83.077h-0.003z" />
<glyph unicode="&#xe912;" glyph-name="heart1" d="M942.886 814.723c-50.49 54.9-122.664 89.181-202.846 89.181-0.699 0-1.397-0.003-2.094-0.008l0.107 0.001c-0.547 0.004-1.193 0.007-1.84 0.007-60.331 0-115.797-20.832-159.596-55.695l0.522 0.402c-24.897-19.67-46.356-42.134-64.379-67.231l-0.674-0.986c-18.696 26.084-40.155 48.548-64.36 67.69l-0.692 0.528c-43.277 34.462-98.742 55.295-159.075 55.295-0.647 0-1.293-0.002-1.939-0.007l0.099 0.001c-0.59 0.005-1.289 0.007-1.987 0.007-80.181 0-152.356-34.28-202.666-88.984l-0.178-0.196c-50.449-56.356-81.288-131.184-81.288-213.214 0-2.007 0.018-4.009 0.055-6.007l-0.004 0.299c2.594-96.746 40.744-184.107 101.793-249.932l-0.224 0.244c78.161-86.017 161.198-164.249 249.926-235.699l4.22-3.287c35.269-29.874 75.174-63.759 116.64-100.321 10.547-9.146 24.408-14.72 39.571-14.72s29.023 5.573 39.646 14.784l-0.075-0.064c41.466 36.561 81.46 70.447 116.684 100.766 93.057 74.469 176.103 152.568 252.555 236.762l1.59 1.778c60.826 65.58 98.976 152.942 101.559 249.176l0.011 0.512c0.035 1.757 0.054 3.828 0.054 5.904 0 81.938-30.77 156.689-81.386 213.329l0.273-0.31z" />
<glyph unicode="&#xe913;" glyph-name="album" horiz-adv-x="1280" d="M1135.104 960h-991.744c-0.004 0-0.010 0-0.015 0-78.455 0-142.191-63.022-143.344-141.204l-0.001-0.108v-741.376c1.154-78.29 64.89-141.312 143.345-141.312 0.005 0 0.010 0 0.015 0h993.279c0.004 0 0.010 0 0.015 0 78.455 0 142.191 63.022 143.344 141.204l0.001 0.108v741.376c-1.351 78.334-65.169 141.317-143.698 141.317-0.421 0-0.842-0.002-1.262-0.005h0.064zM708.608 818.688c81.623-0.868 147.456-67.238 147.456-148.984 0-82.286-66.706-148.992-148.992-148.992-82.283 0-148.988 66.702-148.992 148.984v0c0.638 82.423 67.602 148.993 150.114 148.993 0.145 0 0.291 0 0.436-0.001h-0.022zM143.36 40.448c-0.183-0.003-0.4-0.005-0.617-0.005-20.443 0-37.043 16.458-37.271 36.847v21.014l422.4 273.92 415.744-330.752h-800.256v-1.024zM1172.992 77.312c-0.052-20.377-16.582-36.875-36.966-36.875-0.324 0-0.647 0.004-0.969 0.012l0.048-0.001h-22.528l-366.080 289.792 236.544 150.528 189.952-96.768v-306.688z" />
<glyph unicode="&#xe914;" glyph-name="arrow" horiz-adv-x="1638" d="M0 814.592c-0.001-0.164-0.001-0.358-0.001-0.552 0-40.857 15.558-78.081 41.073-106.069l-0.112 0.125 679.936-729.088c24.54-26.461 59.495-42.966 98.304-42.966s73.764 16.506 98.226 42.881l0.078 0.086 679.936 729.088c25.706 27.937 41.465 65.376 41.465 106.496s-15.759 78.559-41.567 106.608l0.102-0.112c-24.744 27.562-60.488 44.821-100.264 44.821-38.8 0-73.765-16.423-98.321-42.697l-0.071-0.077-579.584-622.592-579.584 622.592c-24.628 26.351-59.592 42.773-98.392 42.773-39.776 0-75.52-17.259-100.153-44.697l-0.11-0.125c-25.403-27.864-40.961-65.087-40.961-105.944 0-0.194 0-0.388 0.001-0.582v0.030z" />
<glyph unicode="&#xe915;" glyph-name="calendar" d="M732.433 741.547c22.622 0 40.96 18.338 40.96 40.96v0 135.851c0 22.622-18.338 40.96-40.96 40.96s-40.96-18.338-40.96-40.96v0-135.851c0-22.622 18.338-40.96 40.96-40.96v0zM291.567 741.547c22.622 0 40.96 18.338 40.96 40.96v0 135.851c0 22.622-18.338 40.96-40.96 40.96s-40.96-18.338-40.96-40.96v0-135.851c0-22.622 18.338-40.96 40.96-40.96v0zM969.318 858.965h-146.637v-76.459c0.022-0.739 0.034-1.609 0.034-2.482 0-49.843-40.406-90.249-90.249-90.249s-90.249 40.406-90.249 90.249c0 0.873 0.012 1.742 0.037 2.609l-0.003-0.127v76.459h-260.506v-76.459c0.022-0.739 0.034-1.609 0.034-2.482 0-49.843-40.406-90.249-90.249-90.249s-90.249 40.406-90.249 90.249c0 0.873 0.012 1.742 0.037 2.609l-0.003-0.127v76.459h-146.705c-0.001 0-0.003 0-0.004 0-30.162 0-54.613-24.451-54.613-54.613 0-0.24 0.002-0.48 0.005-0.719v0.036-225.963h1024v225.963c0.003 0.203 0.004 0.443 0.004 0.683 0 30.162-24.451 54.613-54.613 54.613-0.002 0-0.003 0-0.005 0v0zM0-8.704c-0.003-0.203-0.004-0.443-0.004-0.683 0-30.162 24.451-54.613 54.613-54.613 0.002 0 0.003 0 0.005 0h914.773c0.001 0 0.003 0 0.004 0 30.162 0 54.613 24.451 54.613 54.613 0 0.24-0.002 0.48-0.005 0.719v-0.036 542.037h-1024v-542.037zM756.736 402.261h139.878v-140.629h-139.878v140.629zM756.736 200.875h139.878v-140.629h-139.878v140.629zM546.953 402.261h139.878v-140.629h-139.878v140.629zM546.953 200.875h139.878v-140.629h-139.878v140.629zM337.169 402.261h139.878v-140.629h-139.878v140.629zM337.169 200.875h139.878v-140.629h-139.878v140.629zM127.386 402.261h139.878v-140.629h-139.878v140.629zM127.386 200.875h139.878v-140.629h-139.878v140.629z" />
<glyph unicode="&#xe916;" glyph-name="categories" d="M459.337 921.966v-382.537c0-21.943-17.554-38.766-38.766-38.766h-382.537c-21.093 0.411-38.034 17.606-38.034 38.759 0 0.002 0 0.005 0 0.007v0 382.537c0 20.48 17.554 38.034 38.034 38.034h382.537c21.943 0 38.766-17.554 38.766-38.034zM1024 921.966v-382.537c0-21.943-17.554-38.766-38.034-38.766h-382.537c-21.41 0-38.766 17.356-38.766 38.766v0 382.537c0 20.48 17.554 38.034 38.766 38.034h382.537c20.48 0 38.034-17.554 38.034-38.034zM459.337 356.571v-382.537c0-20.48-17.554-38.034-38.766-38.034h-382.537c-20.842 0.402-37.632 17.192-38.034 37.996l-0.001 0.038v382.537c0 21.943 17.554 38.766 38.034 38.766h382.537c21.943 0 38.766-17.554 38.766-38.766zM1024 356.571v-382.537c0-20.48-17.554-38.034-38.034-38.034h-382.537c-0.002 0-0.004 0-0.007 0-21.153 0-38.348 16.942-38.758 37.996l-0.001 0.038v382.537c0 21.943 17.554 38.766 38.766 38.766h382.537c20.48 0 38.034-17.554 38.034-38.766z" />
<glyph unicode="&#xe917;" glyph-name="check" horiz-adv-x="1434" d="M1290.24 947.712c-8.115 7.282-18.897 11.734-30.72 11.734s-22.605-4.452-30.763-11.772l0.043 0.038-667.648-631.808c-8.247-7.849-19.432-12.678-31.744-12.678s-23.497 4.829-31.763 12.696l0.019-0.018-291.84 282.624c-7.875 7.939-18.679 12.961-30.655 13.31l-0.065 0.002c-0.234 0.004-0.51 0.007-0.787 0.007-12.503 0-23.816-5.092-31.978-13.316l-0.003-0.003-129.024-110.592c-8.186-7.514-13.298-18.264-13.298-30.208s5.112-22.694 13.268-30.181l0.030-0.027 484.352-476.16c17.408-17.408 46.080-17.408 63.488 0l857.088 814.080c8.522 7.542 13.868 18.507 13.868 30.72s-5.345 23.178-13.824 30.682l-0.043 0.038-126.976 120.832z" />
<glyph unicode="&#xe918;" glyph-name="comment-rate-down" horiz-adv-x="878" d="M238.446 916.114v-381.806h-197.486c-16.373-0.454-30.304-10.449-36.469-24.604l-0.103-0.264c-2.547-5.591-4.032-12.125-4.032-19.007 0-10.467 3.436-20.133 9.241-27.929l-0.089 0.124 397.897-510.537c7.314-10.24 19.017-16.091 31.451-16.091s24.137 5.851 31.451 16.091l397.897 510.537c5.999 7.788 9.615 17.682 9.615 28.421 0 6.645-1.385 12.967-3.881 18.692l0.117-0.302c-6.368 14.636-20.64 24.715-37.283 24.868h-197.506v381.806c0 24.137-18.286 43.886-41.691 43.886h-317.44c-23.406 0-41.691-19.749-41.691-43.886z" />
<glyph unicode="&#xe919;" glyph-name="comment-rate-up" horiz-adv-x="878" d="M238.446-20.114v381.806h-197.486c-16.373 0.454-30.304 10.449-36.469 24.604l-0.103 0.264c-2.547 5.591-4.032 12.125-4.032 19.007 0 10.467 3.436 20.133 9.241 27.929l-0.089-0.124 397.897 510.537c7.314 10.24 19.017 16.091 31.451 16.091s24.137-5.851 31.451-16.091l397.897-510.537c10.24-13.166 12.434-31.451 5.851-46.811-7.314-14.629-21.943-24.869-37.303-24.869h-197.486v-381.806c0-24.137-18.286-43.886-41.691-43.886h-317.44c-23.406 0-41.691 19.749-41.691 43.886z" />
<glyph unicode="&#xe91a;" glyph-name="download" horiz-adv-x="1317" d="M163.84 378.514c-271.36 124.343-186.514 544.183 117.029 544.183h217.966l-57.051-134.583h-27.063c-63.634 0-100.937-70.217-63.634-124.343l238.446-318.171c26.331-53.394 100.937-53.394 132.389 0l243.566 324.023c27.063 48.274-10.24 118.491-68.754 118.491h-27.063l-57.051 134.583h223.817c308.663 0 393.509-441.783 95.086-555.886 48.274-215.040-117.029-431.543-334.994-431.543-122.554 1.117-229.95 64.986-291.736 160.99l-0.836 1.387c-29.681-13.719-64.414-21.72-101.015-21.72-135.73 0-245.76 110.030-245.76 245.76 0 20.163 2.428 39.759 7.008 58.511l-0.347-1.683zM839.68 723.017c10.24 0 21.211-10.24 15.36-21.943l-185.783-266.24c-2.247-5.368-7.457-9.070-13.531-9.070s-11.284 3.702-13.496 8.974l-0.036 0.096-185.783 261.12c-5.851 10.971 0 27.063 16.091 27.063h84.846v193.829c0 21.943 21.211 43.154 42.423 43.154h111.909c21.211 0 42.423-21.943 42.423-43.154v-193.829z" />
<glyph unicode="&#xe91b;" glyph-name="earth" d="M1024 448c0-282.77-229.23-512-512-512s-512 229.23-512 512v0c0 282.77 229.23 512 512 512s512-229.23 512-512v0zM252.343 795.429l42.423-25.6 12.434 24.137c10.24 18.286 21.943 35.84 34.377 52.663-31.451-13.166-61.44-30.72-89.234-51.2zM205.531 754.469c-72.938-73.042-119.881-172.059-125.76-281.98l-0.046-1.083h149.211c1.463 87.771 17.554 173.349 47.543 254.537-23.065 12.822-42.665 25.651-61.284 39.711l1.307-0.945zM216.503 131.291c19.017 14.629 39.497 27.063 59.977 38.034-29.257 81.92-46.080 168.229-47.543 255.269h-149.211c5.12-106.789 50.469-207.726 125.806-283.063zM342.309 48.64c-17.094 22.293-32.685 47.484-45.662 74.18l-1.149 2.62c-14.629-7.314-28.526-16.091-41.691-25.6 27.063-20.48 57.051-37.303 88.503-51.2zM488.594 181.029c-55-2.793-106.391-15.168-153.558-35.482l2.884 1.105 10.971-21.943c21.211-41.691 52.663-77.531 91.429-103.863 16.091-2.926 31.451-4.389 48.274-5.851zM488.594 424.594h-212.114c1.644-84.388 17.324-164.609 44.79-239.127l-1.635 5.069 19.017 7.314c44.248 17.096 95.425 28.142 148.831 30.678l1.112 0.042zM488.594 667.429c-54.53 2.643-105.699 13.684-153.345 31.86l3.402-1.14-19.749 8.046c-25.727-69.442-41.397-149.648-43.141-233.279l-0.013-0.779h212.114zM488.594 881.006c-16.823-0.731-32.183-2.926-48.274-5.12-45.53-31.102-80.821-74.16-101.72-124.683l-0.68-1.854c44.266-19.762 95.745-32.197 149.868-34.352l0.806-0.025zM807.497 764.709c-19.017-14.629-39.497-27.063-59.977-38.766 29.989-81.189 46.080-167.497 47.543-254.537h149.211c-5.925 111.005-52.868 210.021-125.811 283.068l0.005-0.006zM770.926 795.429c-25.8 19.5-55.165 36.653-86.479 50.144l-2.755 1.056c17.264-22.098 32.86-47.057 45.726-73.587l1.086-2.482c14.629 7.314 28.526 16.091 41.691 24.869zM535.406 714.971c48.41 2.376 93.836 12.098 136.192 28.080l-3.072-1.017 17.554 7.314-10.971 21.943c-21.774 42.459-52.756 77.422-90.485 103.253l-0.944 0.61c-13.487 2.528-30.045 4.608-46.854 5.773l-1.42 0.079zM535.406 471.406h212.114c-0.731 80.457-15.36 159.451-42.423 234.057l-19.749-7.314c-44.241-17.012-95.407-28.051-148.785-30.675l-1.158-0.045zM535.406 228.571c61.679-3.062 119.317-17.025 172.134-39.995l-3.174 1.229c26.058 69.395 41.986 149.577 43.871 233.226l0.015 0.831h-212.114zM583.68 20.846c45.525 30.825 80.822 73.654 101.724 123.969l0.676 1.836c-44.239 19.472-95.602 32.095-149.538 35.059l-1.137 0.050v-166.766l48.274 5.12zM682.423 49.371c31.451 13.166 61.44 30.72 89.234 51.2-11.723 8.072-25.588 16.557-39.891 24.339l-2.532 1.261-12.434-24.137c-10.24-18.286-21.943-35.84-34.377-52.663zM818.469 141.531c72.938 73.042 119.881 172.059 125.76 281.98l0.046 1.083h-149.211c-1.522-92.022-18.825-179.545-49.306-260.617l1.763 5.348c20.48-10.971 40.96-24.137 59.977-38.034l10.971 10.24z" />
<glyph unicode="&#xe91c;" glyph-name="eye" horiz-adv-x="1504" d="M750.933 192c4.407-0.27 9.558-0.424 14.746-0.424 141.611 0 256.41 114.798 256.41 256.41s-114.798 256.41-256.41 256.41c-141.606 0-256.401-114.79-256.41-256.394v-0.001c-0.057-1.988-0.089-4.326-0.089-6.672 0-135.060 107.338-245.050 241.361-249.318l0.392-0.010zM732.501 608.427v-84.651c-30.793-1.206-55.299-26.461-55.299-57.439 0-0.207 0.001-0.413 0.003-0.619v0.031h-79.872c-0.006 0.465-0.009 1.014-0.009 1.564 0 75.873 59.825 137.773 134.877 141.103l0.3 0.011zM750.933-64c359.765 0 651.947 351.573 733.184 458.752 11.185 14.611 17.922 33.143 17.922 53.248s-6.737 38.637-18.078 53.46l0.156-0.212c-81.237 107.179-373.419 458.752-733.184 458.752s-651.947-351.573-733.867-458.752c-10.88-14.715-17.415-33.219-17.415-53.248s6.535-38.533 17.589-53.494l-0.174 0.246c81.92-107.179 373.419-458.752 733.867-458.752zM750.933 818.688c6.304 0.382 13.674 0.6 21.094 0.6 205.065 0 371.302-166.238 371.302-371.302s-166.238-371.302-371.302-371.302c-205.065 0-371.302 166.238-371.302 371.302 0 0.005 0 0.010 0 0.016v-0.001c-0.086 2.935-0.134 6.387-0.134 9.851 0 195.626 155.607 354.908 349.798 360.824l0.544 0.013z" />
<glyph unicode="&#xe91d;" glyph-name="flag" horiz-adv-x="922" d="M295.936-10.24c5.12-24.576-11.264-48.128-37.376-52.736-25.6-5.12-51.2 10.24-56.32 34.816l-201.216 934.4c-5.12 24.576 11.264 48.128 37.376 52.736 25.6 5.12 51.2-10.24 56.32-34.816zM921.6 940.544l-55.296-548.352s-68.608-70.144-192-78.848c-172.544-11.776-201.216 40.448-278.016 46.080-8.441 0.756-18.26 1.188-28.179 1.188-36.583 0-71.795-5.867-104.748-16.71l2.367 0.674-120.32 558.080c71.613 25.484 154.25 41.080 240.262 42.992l0.89 0.016c169.472 2.56 201.216-79.872 378.88-63.488 121.856 11.264 156.16 58.368 156.16 58.368z" />
<glyph unicode="&#xe91e;" glyph-name="hand" horiz-adv-x="1092" d="M0 585.216h261.461v-640.341h-261.461v640.341zM1090.219 475.307c-0.464 65.702-53.833 118.785-119.6 118.785-0.193 0-0.386 0-0.579-0.001h-289.421l58.709 215.040c2.066 8.346 3.251 17.928 3.251 27.786 0 47.733-27.787 88.976-68.068 108.434l-0.719 0.313-12.288 5.461c-12.16 5.553-26.376 8.789-41.348 8.789-40.254 0-75.043-23.398-91.508-57.337l-0.265-0.605s-206.165-384.341-206.165-426.667v-420.523c0.464-65.702 53.833-118.785 119.6-118.785 0.193 0 0.386 0 0.579 0.001h393.869c67.584 20.48 212.992 296.277 253.952 460.117 1.18 11.868 1.852 25.653 1.852 39.595s-0.673 27.726-1.988 41.323l0.135-1.728z" />
<glyph unicode="&#xe91f;" glyph-name="heart" horiz-adv-x="1076" d="M486.045 872.537c-47.358 53.901-116.434 87.739-193.413 87.739s-146.055-33.838-193.164-87.45l-0.248-0.288-8.633-9.655c-56.221-63.344-90.561-147.214-90.561-239.104s34.339-175.76 90.885-239.476l-0.324 0.372 380.521-416.302c16.407-18.832 40.429-30.666 67.216-30.666s50.809 11.834 67.125 30.56l0.091 0.107 380.521 416.302c56.244 63.335 90.599 147.207 90.599 239.104s-34.355 175.769-90.922 239.474l0.323-0.371-8.576 9.655c-47.368 53.903-116.453 87.742-193.441 87.742s-146.073-33.838-193.193-87.453l-0.248-0.288-18.401-20.446c-8.269-9.3-20.265-15.129-33.622-15.129s-25.354 5.83-33.582 15.084l-0.040 0.046z" />
<glyph unicode="&#xe920;" glyph-name="home" d="M754.944-64h41.472c65.191 0.687 117.774 53.694 117.774 118.983 0 0.65-0.005 1.299-0.016 1.947l0.001-0.098v340.992c-0.066 41.559-20.667 78.293-52.197 100.605l-0.386 0.259-276.48 188.416c-18.14 12.735-40.68 20.352-64.998 20.352s-46.858-7.617-65.364-20.594l0.365 0.243-276.48-188.416c-31.938-22.176-52.586-58.669-52.586-99.983 0-0.31 0.001-0.619 0.003-0.928v0.047-340.992c-0.009-0.55-0.014-1.199-0.014-1.849 0-65.289 52.583-118.296 117.709-118.982l0.065-0.001h41.472c65.191 0.687 117.774 53.694 117.774 118.983 0 0.65-0.005 1.299-0.016 1.947l0.001-0.098v141.824c-0.114 1.94-0.179 4.21-0.179 6.494 0 65.037 52.723 117.76 117.76 117.76s117.76-52.723 117.76-117.76c0-2.284-0.065-4.554-0.193-6.806l0.014 0.312v-141.824c-0.009-0.555-0.015-1.209-0.015-1.864 0-64.929 52.005-117.711 116.633-118.966l0.117-0.002zM761.856 827.904c7.196-5.68 16.397-9.111 26.399-9.111 23.64 0 42.803 19.164 42.803 42.803 0 0.575-0.011 1.148-0.034 1.717l0.003-0.082v51.2c0.001 0.094 0.001 0.204 0.001 0.315 0 23.861-19.113 43.258-42.864 43.716l-0.043 0.001h-23.501c-23.8-0.488-42.906-19.896-42.906-43.767 0-0.093 0-0.186 0.001-0.279v0.014-32.256c0.128-14.6 7.125-27.539 17.912-35.759l0.111-0.081zM492.083 951.296l-476.16-418.816c-10.28-8.931-16.743-22.024-16.743-36.627 0-25.832 20.222-46.94 45.698-48.359l0.126-0.006c0.39-0.014 0.848-0.023 1.307-0.023 8.945 0 17.166 3.095 23.652 8.273l-0.076-0.059 423.322 318.464c7.059 5.277 15.959 8.449 25.6 8.449s18.541-3.172 25.713-8.53l-0.113 0.081 408.115-304.128c7.030-5.433 15.967-8.708 25.67-8.708 0.209 0 0.419 0.002 0.627 0.005h-0.032c25.479 1.951 45.414 23.105 45.414 48.915 0 14.521-6.31 27.567-16.337 36.548l-0.047 0.041-457.882 404.48c-8.132 5.478-18.148 8.744-28.928 8.744s-20.796-3.266-29.115-8.862l0.187 0.118z" />
<glyph unicode="&#xe921;" glyph-name="info" d="M512-64c-281.6 0-512 230.4-512 512s230.4 512 512 512 512-230.4 512-512-230.4-512-512-512zM522.24 519.68c-56.32-5.12-107.52-20.48-153.6-56.32-10.24-10.24-5.12-20.48 10.24-25.6l15.36-5.12c25.6-10.24 30.72-20.48 25.6-40.96l-40.96-179.2c-10.24-46.080 10.24-81.92 56.32-81.92 61.44-5.12 122.88 15.36 168.96 51.2 5.12 5.12 10.24 10.24 10.24 20.48 0 5.12-10.24 5.12-15.36 10.24h-10.24c-25.6 10.24-35.84 20.48-30.72 46.080 15.36 56.32 30.72 117.76 40.96 174.080 5.12 15.36 5.12 30.72 0 40.96-10.24 35.84-35.84 51.2-76.8 46.080v0zM655.36 698.88c0 51.2-40.96 97.28-92.16 97.28s-97.28-40.96-97.28-92.16c0-51.2 40.96-97.28 92.16-97.28 51.2-5.12 97.28 40.96 97.28 92.16v0z" />
<glyph unicode="&#xe922;" glyph-name="key" d="M1013.76 99.109l-344.503 345.966c-3.488 4.433-5.594 10.096-5.594 16.251 0 2.816 0.441 5.528 1.257 8.073l-0.052-0.187c10.667 25.599 20.007 55.96 26.488 87.365l0.575 3.332c2.512 15.705 3.948 33.812 3.948 52.253 0 192.081-155.713 347.794-347.794 347.794-96.284 0-183.43-39.126-246.406-102.345l-0.011-0.011c-63.297-63.241-102.451-150.637-102.451-247.179 0-192.97 156.433-349.403 349.403-349.403 20.507 0 40.6 1.767 60.138 5.156l-2.084-0.299c33.836 7.643 63.377 17.701 91.436 30.45l-2.933-1.193c2.306 0.787 4.963 1.242 7.725 1.242 5.975 0 11.454-2.126 15.721-5.663l-0.041 0.033 32.914-33.646c6.874-7.808 11.225-17.983 11.7-29.161l0.003-0.097-3.657-62.171c-0.051-0.709-0.079-1.535-0.079-2.369 0-17.655 12.95-32.285 29.87-34.909l0.198-0.025 87.771-13.166c7.182-1.593 12.674-7.332 13.883-14.523l0.015-0.105 5.851-77.531c0.764-17.571 15.195-31.527 32.885-31.527 0.782 0 1.558 0.027 2.327 0.081l-0.104-0.006 62.171 3.657c0.699 0.038 1.517 0.060 2.34 0.060 7.702 0 14.956-1.917 21.311-5.299l-0.245 0.119 43.886-43.886c6.522-6.095 15.219-9.935 24.809-10.239l0.060-0.001h2.926l98.743 8.777c14.957 1.836 26.689 13.568 28.51 28.368l0.016 0.158 3.657 47.543 3.657 50.469c0.020 0.467 0.032 1.016 0.032 1.567 0 10.137-3.906 19.362-10.295 26.252l0.023-0.025zM374.491 584.046c-20.616-20.521-49.046-33.207-80.439-33.207-62.977 0-114.030 51.053-114.030 114.030s51.053 114.030 114.030 114.030c31.393 0 59.823-12.686 80.443-33.211l-0.004 0.004c20.351-20.836 32.905-49.363 32.905-80.823s-12.555-59.987-32.927-80.845l0.022 0.023z" />
<glyph unicode="&#xe923;" glyph-name="uniE923" horiz-adv-x="887" d="M442.225-63.345l-222.66 128.595v761.749l222.66 128.536 305.235-176.223-508.428-318.273v-1.905l524.026-337.265zM1.012 191.405v509.44l193.131 111.509v-732.458z" />
<glyph unicode="&#xe924;" glyph-name="uniE924" horiz-adv-x="887" d="M545.756 626.724l226.054 140.621 110.497-65.25v-512.417l-95.434-55.248-241.116 155.743z" />
<glyph unicode="&#xe925;" glyph-name="lock" horiz-adv-x="805" d="M804.571 467.749v-466.651c0-36.571-28.526-65.097-62.903-65.097h-678.766c-34.915 0.816-62.907 29.314-62.907 64.349 0 0.263 0.002 0.526 0.005 0.788v-0.040 466.651c0 36.571 28.526 65.829 62.903 65.829h34.377v112.64c0 173.349 136.777 313.783 305.006 313.783s305.006-140.434 305.006-314.514v-112.64h34.377c34.377 0 62.903-29.257 62.903-65.097zM210.651 533.577h383.269v112.64c0 108.251-86.309 196.754-191.634 196.754-106.196-1.635-191.657-88.107-191.657-194.538 0-1.036 0.008-2.071 0.024-3.103l-0.002 0.156zM497.371 321.463c0 54.126-42.423 98.011-95.086 98.011s-95.086-43.886-95.086-98.011c0-38.034 21.943-70.949 52.663-87.040v-107.52c0-3.657 2.926-6.583 6.583-6.583h71.68c3.657 0 7.314 2.926 7.314 6.583v107.52c30.72 16.091 51.2 49.006 51.2 87.771z" />
<glyph unicode="&#xe926;" glyph-name="member" horiz-adv-x="805" d="M395.703 960c3.801 0.202 8.25 0.317 12.727 0.317 141.143 0 255.561-114.419 255.561-255.561s-114.419-255.561-255.561-255.561c-141.134 0-255.547 114.405-255.561 255.535v0.001c-0.044 1.746-0.069 3.803-0.069 5.865 0 135.473 107.977 245.728 242.564 249.396l0.339 0.007zM8.046 88.869c-5.449-12.614-8.618-27.3-8.618-42.727 0-59.354 46.913-107.751 105.682-110.134l0.216-0.007h593.92c58.985 2.39 105.898 50.787 105.898 110.141 0 15.427-3.169 30.114-8.892 43.444l0.274-0.717c-73.874 184.32-223.086 309.394-394.24 309.394s-321.829-125.074-394.24-309.394z" />
<glyph unicode="&#xe927;" glyph-name="message" d="M341.577 570.149h243.566c26.863 0 48.64 21.777 48.64 48.64s-21.777 48.64-48.64 48.64h-243.566c-26.863 0-48.64-21.777-48.64-48.64s21.777-48.64 48.64-48.64v0zM341.577 374.857h389.851c26.863 0 48.64 21.777 48.64 48.64s-21.777 48.64-48.64 48.64h-389.851c-26.863 0-48.64-21.777-48.64-48.64s21.777-48.64 48.64-48.64v0zM2.194-0.366l88.503 274.286c-26.79 58.497-42.408 126.899-42.408 198.949 0 269.439 218.424 487.863 487.863 487.863s487.863-218.424 487.863-487.863c0-269.439-218.424-487.863-487.863-487.863-0.005 0-0.010 0-0.015 0h0.001c-95.955 1.137-187.044 20.649-270.34 55.168l4.831-1.774c-0.532 0.715-1.29 1.236-2.168 1.457l-0.027 0.006-198.217-98.743c-5.914-3.228-12.954-5.127-20.438-5.127-0.272 0-0.543 0.003-0.814 0.007l0.041-0.001c-12.259 0.223-23.454 4.6-32.279 11.779l0.097-0.076c-10.327 9.194-16.799 22.524-16.799 37.366 0 5.197 0.793 10.208 2.266 14.919l-0.095-0.354z" />
<glyph unicode="&#xe928;" glyph-name="model" d="M1024 48.64s-67.291 27.063-100.206 43.154c-45.052 21.054-78.674 60.182-91.88 107.8l-0.28 1.182c-24.137 81.189-8.046 160.914 7.314 241.371 8.046 45.349 18.286 90.697 10.971 137.509-21.943 149.943-110.446 251.611-236.251 324.754-60.173 35.108-132.463 55.835-209.593 55.835-66.060 0-128.57-15.204-184.219-42.304l2.498 1.098c-76.8-38.766-380.343-274.286-117.029-716.069 40.96-59.977 235.52-223.086 302.080-219.429-98.743 90.697-171.154 404.48-171.154 404.48s100.937-355.474 305.737-452.023c-21.943 58.514-158.72 215.771-95.086 346.697 32.183 64.366 73.143 122.149 114.103 181.394 49.737 72.411 106.789 141.166 117.76 233.326 9.509-1.463 13.166-7.314 16.823-13.166 43.154-68.023 51.2-141.166 40.229-219.429-2.926-17.554-8.046-35.84-0.731-53.394 41.691-106.789 8.777-204.8-36.571-299.886-19.017-38.034-53.394-55.589-97.28-51.2l-70.217 5.851c160.914-138.971 492.983-17.554 492.983-17.554z" />
<glyph unicode="&#xe929;" glyph-name="logout" d="M1024 725.943c-4.177-43.739-40.731-77.674-85.211-77.674s-81.034 33.935-85.185 77.328l-0.027 0.346v20.48c0.004 0.22 0.006 0.478 0.006 0.738 0 23.429-18.993 42.423-42.423 42.423-0.259 0-0.518-0.002-0.777-0.007l0.039 0.001h-596.846c-0.22 0.004-0.478 0.006-0.738 0.006-23.429 0-42.423-18.993-42.423-42.423 0-0.259 0.002-0.518 0.007-0.777l-0.001 0.039v-596.846c0-24.137 19.017-43.154 43.154-43.154h596.846c24.137 0 43.154 19.017 43.154 43.154v21.211c4.177 43.739 40.731 77.674 85.211 77.674s81.034-33.935 85.185-77.328l0.027-0.346v-21.943c0-117.029-95.086-212.846-213.577-212.846h-596.846c-117.955 0-213.577 95.622-213.577 213.577v0 596.846c0 117.76 95.086 213.577 213.577 213.577h596.846c117.76 0 213.577-95.086 213.577-213.577zM810.423 396.8l-195.291-199.68c-80.457-80.457-201.143 40.229-120.686 119.954v0.731c25.6 24.869 17.554 45.349-18.286 45.349h-156.526c-46.811 0-84.846 38.034-84.846 84.846s38.034 84.846 84.846 84.846h156.526c35.84 0 43.886 20.48 19.017 45.349h-0.731c-80.457 80.457 40.229 201.143 120.686 120.686l195.291-196.754c29.257-29.257 29.257-76.069 0-106.057z" />
<glyph unicode="&#xe92a;" glyph-name="plus-in-circle" d="M512-64c-282.77 0-512 229.23-512 512s229.23 512 512 512c282.77 0 512-229.23 512-512v0c0-282.77-229.23-512-512-512v0zM691.273 498.469h-128.512v128.731c0 28.035-22.727 50.761-50.761 50.761s-50.761-22.727-50.761-50.761v-128.731h-128.512c-27.873 0-50.469-22.596-50.469-50.469s22.596-50.469 50.469-50.469h128.512v-128c0-28.035 22.727-50.761 50.761-50.761s50.761 22.727 50.761 50.761v0 128h127.415c0.196-0.003 0.428-0.004 0.66-0.004 27.671 0 50.103 22.432 50.103 50.103 0 0.13 0 0.26-0.001 0.39v-0.020c0.011 0.393 0.018 0.855 0.018 1.319 0 27.146-22.006 49.152-49.152 49.152-0.186 0-0.372-0.001-0.558-0.003h0.028z" />
<glyph unicode="&#xe92b;" glyph-name="premium" horiz-adv-x="1365" d="M682.667 960c-1.044 0.047-2.268 0.074-3.499 0.074-45.762 0-82.859-37.097-82.859-82.859s37.097-82.859 82.859-82.859c45.762 0 82.859 37.097 82.859 82.859 0 0.004 0 0.008 0 0.012v-0.001c0.014 0.563 0.022 1.226 0.022 1.891 0 44.145-35.36 80.032-79.303 80.881l-0.079 0.001zM651.947 766.293l-238.933-351.573-282.283 112.64c-9.908-10.552-22.212-18.735-36.052-23.693l-0.641-0.201 144.384-435.2h889.003l144.384 435.2c-14.481 5.158-26.785 13.342-36.648 23.845l-0.045 0.049-282.283-112.64-238.933 351.573c-9.28-2.754-19.943-4.34-30.976-4.34s-21.696 1.585-31.773 4.54l0.797-0.2zM63.147 663.040c-35.262-0.897-63.505-29.695-63.505-65.090 0-0.517 0.006-1.033 0.018-1.547l-0.001 0.076c0-35.063 28.425-63.488 63.488-63.488s63.488 28.425 63.488 63.488v0c0.011 0.441 0.017 0.959 0.017 1.48 0 35.275-28.052 63.997-63.064 65.078l-0.099 0.002zM1301.504 663.040c-35.262-0.897-63.505-29.695-63.505-65.090 0-0.517 0.006-1.033 0.018-1.547l-0.001 0.076c0-35.063 28.425-63.488 63.488-63.488s63.488 28.425 63.488 63.488v0c0.011 0.441 0.017 0.959 0.017 1.48 0 35.275-28.052 63.997-63.064 65.078l-0.099 0.002zM237.824 34.987v-98.987h889.003v98.987h-888.661z" />
<glyph unicode="&#xe92c;" glyph-name="search" d="M433.152 94.208c93.955 0.036 180.867 30.158 251.634 81.254l-1.266-0.87 217.088-217.6c13.157-12.977 31.237-20.992 51.189-20.992 0.004 0 0.008 0 0.011 0h-0.001c19.939 0.102 37.992 8.092 51.214 21.006l-0.014-0.014c13.057 13.125 21.128 31.22 21.128 51.2s-8.071 38.075-21.131 51.203l0.003-0.003-217.088 217.6c50.249 69.151 80.385 155.744 80.385 249.376 0 0.349 0 0.697-0.001 1.046v-0.054c0 239.223-193.929 433.152-433.152 433.152s-433.152-193.929-433.152-433.152c0-239.223 193.929-433.152 433.152-433.152v0zM433.152 815.616c159.256-0.116 288.36-129.041 288.768-288.217v-0.039c0-0.141 0-0.308 0-0.474 0-62.508-20.157-120.307-54.326-167.253l0.566 0.816-28.16-39.936-39.936-28.672c-46.458-33.361-104.476-53.35-167.163-53.35-159.369 0-288.563 129.194-288.563 288.563s129.194 288.563 288.563 288.563c0.088 0 0.177 0 0.265 0h-0.014zM256.512 518.144c0.668 101.657 83.231 183.808 184.982 183.808 0.127 0 0.254 0 0.382 0h-0.020c0.015 0 0.033 0 0.051 0 12.979 0 23.501 10.522 23.501 23.501 0 0.018 0 0.036 0 0.054v-0.003c0 0.002 0 0.004 0 0.006 0 12.725-10.315 23.040-23.040 23.040-0.18 0-0.36-0.002-0.539-0.006h0.027c-0.153 0-0.333 0.001-0.514 0.001-127.452 0-230.84-103.029-231.422-230.345v-0.056c0-0.015 0-0.033 0-0.051 0-12.979 10.522-23.501 23.501-23.501 0.018 0 0.036 0 0.054 0h-0.003c0.002 0 0.004 0 0.006 0 12.725 0 23.040 10.315 23.040 23.040 0 0.18-0.002 0.36-0.006 0.539v-0.027z" />
<glyph unicode="&#xe92d;" glyph-name="shape" horiz-adv-x="973" d="M476.16 554.496c-9.573 21.307-20.523 39.645-33.292 56.531l0.524-0.723 148.48 87.040c8.192-20.992 18.944-38.4 33.792-55.296zM623.616 247.296c-12.593-15.952-23.42-34.175-31.676-53.748l-0.58-1.548-147.968 92.16c12.8 16.384 25.6 35.84 34.304 55.296zM480.256 448c-10.26-124.375-113.732-221.43-239.872-221.43s-229.612 97.055-239.814 220.562l-0.058 0.868c-0.512 132.096 106.496 239.104 239.616 239.104s239.616-107.008 239.616-239.104zM383.488 448c-0.146 79.065-64.274 143.104-143.36 143.104-79.176 0-143.36-64.185-143.36-143.36 0-0.090 0-0.18 0-0.27v0.014c0.146-79.065 64.274-143.104 143.36-143.104 79.176 0 143.36 64.185 143.36 143.36 0 0.090 0 0.18 0 0.27v-0.014zM600.064 774.144c0 102.928 83.44 186.368 186.368 186.368s186.368-83.44 186.368-186.368v0c0-102.4-83.456-185.344-186.368-185.344-0.61-0.007-1.33-0.011-2.051-0.011-101.797 0-184.32 82.523-184.32 184.32 0 0.364 0.001 0.728 0.003 1.092v-0.056zM972.8 121.856c0-102.928-83.44-186.368-186.368-186.368s-186.368 83.44-186.368 186.368v0c0 102.928 83.44 186.368 186.368 186.368s186.368-83.44 186.368-186.368v0z" />
<glyph unicode="&#xe92e;" glyph-name="upload" horiz-adv-x="1280" d="M489.984 798.208c59.798 96.6 164.634 160.342 284.461 161.79l0.211 0.002c211.968 0 372.224-215.552 326.144-431.616 289.28-113.152 206.848-555.008-93.184-555.008h-217.6l55.808 134.656h25.6c42.687 3.642 75.955 39.19 75.955 82.508 0 13.203-3.090 25.683-8.587 36.758l0.216-0.482-237.056 323.584c-11.879 24.127-36.291 40.435-64.512 40.435s-52.633-16.309-64.325-40.015l-0.187-0.42-231.424-318.464c-9.263-12.684-14.82-28.585-14.82-45.785 0-42.673 34.21-77.356 76.701-78.118l0.071-0.001h25.6l55.808-134.656h-211.968c-294.912 0-377.856 420.352-113.664 544.256-4.951 18.229-7.795 39.159-7.795 60.754 0 132.902 107.738 240.64 240.64 240.64 35.452 0 69.114-7.666 99.417-21.432l-1.51 0.614zM733.184 172.544v-193.536c-1.090-22.776-18.859-41.077-41.304-42.996l-0.168-0.012h-108.544c-22.532 2.107-40.202 20.307-41.467 42.889l-0.005 0.119v193.536h-82.432c-10.027 0.162-18.092 8.329-18.092 18.379 0 3.209 0.823 6.227 2.268 8.852l-0.048-0.095 181.248 261.12c2.336 4.815 7.187 8.075 12.8 8.075s10.464-3.26 12.763-7.991l0.037-0.084 181.248-266.752c0.641-1.66 1.012-3.58 1.012-5.587 0-8.794-7.129-15.923-15.923-15.923-0.158 0-0.315 0.002-0.472 0.007l0.023-0.001h-82.944z" />
<glyph unicode="&#xe92f;" glyph-name="video" horiz-adv-x="1075" d="M792.064-64h-715.776c-19.668 0.13-35.646 15.749-36.35 35.263l-0.002 0.065v442.368c0.286 19.574 16.221 35.332 35.836 35.332 0.181 0 0.362-0.001 0.543-0.004h715.749c19.668-0.13 35.646-15.749 36.35-35.263l0.002-0.065v-443.904c-1.944-18.712-17.369-33.251-36.299-33.791l-0.053-0.001zM1055.744 404.48l-175.104-100.864-29.696-17.408v-189.44l29.696-17.408 175.104-100.864c1.866-1.103 4.112-1.755 6.51-1.755 6.997 0 12.698 5.548 12.945 12.484l0.001 0.023v404.992c0.012 0.204 0.019 0.442 0.019 0.682 0 6.673-5.41 12.083-12.083 12.083-2.797 0-5.371-0.95-7.419-2.545l0.027 0.020zM899.584 719.36c-0.582-131.472-107.295-237.826-238.848-237.826-131.913 0-238.85 106.937-238.85 238.85 0 0.36 0.001 0.72 0.002 1.079v-0.055c0.582 131.472 107.295 237.826 238.848 237.826 131.913 0 238.85-106.937 238.85-238.85 0-0.36-0.001-0.72-0.002-1.079v0.055zM812.544 719.36c-0.58 82.975-67.979 150.016-151.037 150.016-83.417 0-151.040-67.623-151.040-151.040s67.621-151.038 151.036-151.040v0c83.517 0.465 151.040 68.275 151.040 151.857 0 0.073 0 0.146 0 0.218v-0.011zM361.472 663.040c0-0.152 0.001-0.332 0.001-0.512 0-99.818-80.918-180.736-180.736-180.736s-180.736 80.918-180.736 180.736c0 99.818 80.918 180.736 180.735 180.736v0c99.418-0.546 179.899-80.848 180.735-180.144l0.001-0.080zM272.896 663.040c-0.938 50.413-41.703 91-92.098 91.647l-0.062 0.001c-0.152 0.001-0.332 0.001-0.512 0.001-50.616 0-91.648-41.032-91.648-91.648 0-0.001 0-0.001 0-0.002v0c0-50.899 41.261-92.16 92.16-92.16s92.16 41.261 92.16 92.16v0z" />
<glyph unicode="&#xe930;" glyph-name="watch" d="M512 960c282.77 0 512-229.23 512-512s-229.23-512-512-512c-282.77 0-512 229.23-512 512v0c0 282.77 229.23 512 512 512v0zM512 748.373c-19.478-0.032-35.263-15.797-35.328-35.265v-250.886l-151.723-151.324c-6.052-6.322-9.778-14.913-9.778-24.376 0-19.48 15.791-35.271 35.271-35.271 9.363 0 17.874 3.648 24.189 9.601l-0.018-0.016 157.241 158.151c8.607 7.027 14.37 17.256 15.461 28.844l0.013 0.169v265.102c-0.065 19.474-15.85 35.239-35.325 35.271h-0.003z" />
<glyph unicode="&#xe931;" glyph-name="write" d="M898.926 649.143l-406.674-405.943-184.32 0.731-0.731 185.051 405.943 405.943zM968.411 904.411c51.2-51.2 70.217-114.834 43.886-141.897l-73.143-73.143-185.783 185.051 73.143 73.143c27.063 27.063 90.697 7.314 141.897-43.886zM512 857.6h-409.6v-819.2h819.2v409.6h102.4v-455.68c0-30.72-25.6-56.32-56.32-56.32h-911.36c-31.105 0-56.32 25.215-56.32 56.32v911.36c0 30.72 25.6 56.32 56.32 56.32h455.68z" />
<glyph unicode="&#xe932;" glyph-name="uniE932" horiz-adv-x="1018" d="M902.508 448c-0.263-218.761-177.533-396.031-396.268-396.294h-0.025c-218.761 0.263-396.031 177.533-396.294 396.268v0.025c0.231 218.775 177.52 396.064 396.272 396.294h0.022c218.775-0.231 396.064-177.52 396.294-396.272v-0.022zM166.559 448c0-0.12 0-0.263 0-0.405 0-187.363 151.888-339.251 339.251-339.251 0.143 0 0.285 0 0.428 0h-0.023c0.12 0 0.263 0 0.405 0 187.363 0 339.251 151.888 339.251 339.251 0 0.143 0 0.285 0 0.428v-0.023c0 0.12 0 0.263 0 0.405 0 187.363-151.888 339.251-339.251 339.251-0.143 0-0.285 0-0.428 0h0.023c-0.12 0-0.263 0-0.405 0-187.363 0-339.251-151.888-339.251-339.251 0-0.122 0-0.244 0-0.367v0.019zM431.931 627.287c0.131 0.002 0.285 0.002 0.44 0.002 7.544 0 14.602-2.087 20.625-5.715l-0.18 0.101 221.751-136.533c12.311-7.798 20.366-21.347 20.366-36.777 0-0.128-0.001-0.256-0.002-0.384v0.020c0.001-0.108 0.002-0.236 0.002-0.364 0-15.43-8.055-28.979-20.189-36.672l-0.177-0.105-221.751-136.533c-27.538-15.91-59.126 4.339-59.82 37.72v272.199c0.521 25.050 18.397 42.522 38.935 43.043z" />
<glyph unicode="&#xe933;" glyph-name="uniE933" horiz-adv-x="1018" d="M902.508 448c-0.263-218.761-177.533-396.031-396.268-396.294h-0.025c-218.761 0.263-396.031 177.533-396.294 396.268v0.025c0.231 218.775 177.52 396.064 396.272 396.294h0.022c218.775-0.231 396.064-177.52 396.294-396.272v-0.022zM166.559 448c0-0.12 0-0.263 0-0.405 0-187.363 151.888-339.251 339.251-339.251 0.143 0 0.285 0 0.428 0h-0.023c0.12 0 0.263 0 0.405 0 187.363 0 339.251 151.888 339.251 339.251 0 0.143 0 0.285 0 0.428v-0.023c0 0.12 0 0.263 0 0.405 0 187.363-151.888 339.251-339.251 339.251-0.143 0-0.285 0-0.428 0h0.023c-0.12 0-0.263 0-0.405 0-187.363 0-339.251-151.888-339.251-339.251 0-0.122 0-0.244 0-0.367v0.019zM431.931 627.287c0.131 0.002 0.285 0.002 0.44 0.002 7.544 0 14.602-2.087 20.625-5.715l-0.18 0.101 221.751-136.533c12.311-7.798 20.366-21.347 20.366-36.777 0-0.128-0.001-0.256-0.002-0.384v0.020c0.001-0.108 0.002-0.236 0.002-0.364 0-15.43-8.055-28.979-20.189-36.672l-0.177-0.105-221.751-136.533c-27.538-15.91-59.126 4.339-59.82 37.72v272.199c0.521 25.050 18.397 42.522 38.935 43.043z" />
<glyph unicode="&#xe934;" glyph-name="if_sort_1608845" horiz-adv-x="755" d="M743.974 312.2c0-12.352-4.498-23.062-13.566-32.129l-319.866-319.866c-9.068-9.068-19.777-13.566-32.129-13.566s-23.062 4.498-32.129 13.566l-319.866 319.866c-9.068 9.068-13.566 19.777-13.566 32.129s4.498 23.062 13.566 32.129 19.777 13.566 32.129 13.566h639.732c12.352 0 23.062-4.498 32.129-13.566s13.566-19.706 13.566-32.129zM743.974 586.371c0-12.352-4.498-23.062-13.566-32.129s-19.777-13.566-32.129-13.566h-639.732c-12.352 0-23.062 4.498-32.129 13.566s-13.566 19.777-13.566 32.129 4.498 23.062 13.566 32.129l319.866 319.866c9.068 9.068 19.777 13.566 32.129 13.566s23.062-4.498 32.129-13.566l319.866-319.866c8.996-8.996 13.566-19.706 13.566-32.129z" />
<glyph unicode="&#xe935;" glyph-name="close" d="M996.206 126.903l-321.097 321.829 321.097 320.366c36.571 36.571 36.571 96.549 0 133.12l-29.257 29.989c-16.977 17.158-40.528 27.782-66.56 27.782s-49.583-10.625-66.552-27.774l-0.008-0.008-321.829-321.097-321.829 321.097c-36.571 36.571-95.086 36.571-132.389 0l-29.989-29.257c-18.286-18.286-27.794-41.691-27.794-67.291 0-24.869 9.509-49.006 27.794-66.56l321.097-321.097-321.097-321.097c-36.571-36.571-36.571-96.549 0-133.12l29.257-29.989c17.059-16.98 40.584-27.478 66.56-27.478s49.501 10.497 66.564 27.481l-0.004-0.004 321.829 321.097 321.097-321.097c16.977-17.158 40.528-27.782 66.56-27.782s49.583 10.625 66.552 27.774l29.265 29.265c19.017 18.286 28.526 41.691 28.526 67.291 0 24.869-9.509 49.006-27.794 66.56z" />
<glyph unicode="&#xe936;" glyph-name="if_ic_touch_app_48px_3669192" horiz-adv-x="743" d="M213.536 557.194v179.564c0 67.943 53.384 121.327 121.327 121.327s121.327-53.384 121.327-121.327v-181.991c58.237 38.825 97.062 106.768 97.062 181.991 0 121.327-97.062 218.389-218.389 218.389s-218.389-97.062-218.389-218.389c0-75.223 38.825-140.739 97.062-179.564zM691.564 331.526l-220.815 109.194c-7.28 2.427-16.986 4.853-26.692 4.853h-36.398v291.185c0 41.251-31.545 72.796-72.796 72.796s-72.796-31.545-72.796-72.796v-521.706l-165.005 36.398c-2.427 0-7.28 0-12.133 0-14.559 0-29.118-7.28-38.825-16.986l-38.825-38.825 240.227-240.227c12.133-12.133 31.545-21.839 50.957-21.839h330.009c36.398 0 65.517 26.692 70.37 63.090l36.398 254.787c0 2.427 0 7.28 0 9.706 0 33.972-16.986 58.237-43.678 70.37z" />
<glyph unicode="&#xe937;" glyph-name="like" d="M74.655-20.807h106.645c0 0 0 0 0 0 41.172 0 74.564 33.312 74.693 74.453v490.498c-0.129 41.154-33.521 74.466-74.693 74.466 0 0 0 0 0 0h-106.645c0 0 0 0 0 0-41.164 0-74.547-33.317-74.655-74.455v-490.496c0.108-41.149 33.491-74.466 74.655-74.466 0 0 0 0 0 0v0zM545.27 927.871c-42.666 0-63.979-21.276-63.979-128.035 0-101.061-98.173-182.745-161.316-224.536v-528.478c114.542-49.749 247.958-78.691 388.132-78.691 10.247 0 20.459 0.154 30.632 0.462l-1.491-0.036h68.387c0.082 0 0.178 0 0.275 0 83.816 0 153.489 60.556 167.653 140.304l0.151 1.028 47.795 277.346c1.584 8.727 2.49 18.771 2.49 29.026 0 94.128-76.306 170.435-170.435 170.435-0.047 0-0.094 0-0.142 0h-201.354c20.341 47.165 32.171 102.074 32.171 159.748 0 3.812-0.052 7.611-0.154 11.398l0.012-0.558c0 128.035-96.008 170.587-138.674 170.587v0z" />
<glyph unicode="&#xe938;" glyph-name="rss" d="M857.027 960h-690.053c-92.164-0.132-166.841-74.81-166.973-166.961v-690.066c0.088-92.181 74.792-166.885 166.965-166.973h690.061c92.181 0.088 166.885 74.792 166.973 166.965v690.061c-0.088 92.181-74.792 166.885-166.965 166.973h-0.008zM244.921 80.659c-0.023 0-0.050 0-0.077 0-55.331 0-100.184 44.854-100.184 100.184s44.854 100.184 100.184 100.184c55.331 0 100.184-44.854 100.184-100.184v0c-0.044-55.286-44.827-100.096-100.098-100.184h-0.008zM512.001 114.053c-36.869 0.044-66.745 29.921-66.789 66.785v0.004c-0.132 110.58-89.716 200.191-200.273 200.368h-0.017c-36.886 0-66.789 29.903-66.789 66.789s29.903 66.789 66.789 66.789v0c184.312-0.264 333.649-149.629 333.869-333.925v-0.022c-0.044-36.869-29.921-66.745-66.785-66.789h-0.004zM779.158 114.053c-36.869 0.044-66.745 29.921-66.789 66.785v0.004c-0.309 258.040-209.408 467.14-467.419 467.448h-0.029c-36.886 0-66.789 29.903-66.789 66.789s29.903 66.789 66.789 66.789v0c331.778-0.397 600.63-269.249 601.026-600.989v-0.037c-0.044-36.869-29.921-66.745-66.785-66.789h-0.004z" />
<glyph unicode="&#xe939;" glyph-name="menu" d="M936.833 893.891h-869.741c-36.091 0-65.349-29.258-65.349-65.349s29.258-65.349 65.349-65.349h869.741c36.091 0 65.349 29.258 65.349 65.349s-29.258 65.349-65.349 65.349v0zM956.909 512.698h-889.818c-0.505 0.014-1.101 0.022-1.699 0.022-36.115 0-65.393-29.278-65.393-65.393s29.278-65.393 65.393-65.393c0.598 0 1.192 0.008 1.786 0.024l-0.087-0.002h889.818c0.505-0.014 1.101-0.022 1.699-0.022 36.115 0 65.393 29.278 65.393 65.393s-29.278 65.393-65.393 65.393c-0.598 0-1.192-0.008-1.786-0.024l0.087 0.002zM932.862 132.917h-865.77c-0.505 0.014-1.101 0.022-1.699 0.022-36.115 0-65.393-29.278-65.393-65.393s29.278-65.393 65.393-65.393c0.598 0 1.192 0.008 1.786 0.024l-0.087-0.002h865.77c0.878-0.043 1.907-0.066 2.942-0.066 36.115 0 65.393 29.278 65.393 65.393s-29.278 65.393-65.393 65.393c-1.035 0-2.063-0.024-3.086-0.071l0.145 0.005z" />
<glyph unicode="&#xe93a;" glyph-name="top_models" d="M700.612 869.415c32.056-41.231 51.392-93.734 51.392-150.753 0-8.957-0.477-17.802-1.407-26.512l0.094 1.083c11.068-14.801 17.721-33.463 17.721-53.679 0-2.606-0.11-5.186-0.327-7.737l0.023 0.332c0.527-3.831 0.826-8.258 0.826-12.756 0-45.916-31.308-84.52-73.741-95.628l-0.688-0.153c-5.372-18.244-11.311-33.647-18.32-48.446l0.853 2.003c-1.464-3.534-3.181-6.058-4.746-9.087 22.196-12.393 48.697-19.689 76.902-19.689 0.207 0 0.413 0 0.62 0.001h54.892v402.342c-0.275 60.404-49.305 109.264-109.747 109.264-31.241 0-59.432-13.053-79.419-34.002l-0.041-0.043c33.965-11.511 62.675-31.008 84.925-56.322l0.188-0.218zM662.901 545.32c8.583 35.577 13.505 76.423 13.505 118.418 0 1.851-0.010 3.698-0.029 5.545l0.002-0.282c-67.329 6.441-125.594 40.614-163.956 90.809l-0.413 0.564c-38.802-50.751-97.078-84.919-163.473-91.299l-0.948-0.074c-0.019-1.647-0.029-3.593-0.029-5.542 0-41.887 4.849-82.642 14.016-121.734l-0.71 3.595c5.028-20.116 11.441-37.595 19.451-54.158l-0.723 1.656c17.112-57.904 69.812-99.437 132.213-99.437s115.101 41.533 131.965 98.464l0.247 0.973c7.333 14.906 13.795 32.38 18.461 50.575l0.419 1.927zM318.211 700.3c1.047 1.014 2.265 1.86 3.604 2.49l0.082 0.035h1.212c1.722 0.949 3.773 1.51 5.955 1.514h0.001c71.276 1.267 133.086 40.603 166.087 98.49l0.504 0.959 1.312 1.514c1.222 2.274 2.928 4.143 4.993 5.519l0.055 0.035c0.555 0.505 1.11 0.505 1.666 1.010 0.261 0.316 0.653 0.515 1.091 0.515 0.060 0 0.119-0.004 0.177-0.011l-0.007 0.001c2.071 0.721 4.458 1.137 6.941 1.137s4.871-0.416 7.094-1.183l-0.153 0.045c0.057 0.009 0.123 0.015 0.191 0.015 0.418 0 0.788-0.203 1.018-0.516l0.002-0.004c0.605-0.505 1.161-0.505 1.717-1.010 1.054-0.835 1.992-1.66 2.885-2.532l-0.008 0.008c0.815-0.903 1.58-1.892 2.266-2.937l0.056-0.092 1.312-1.514c33.855-58.513 95.457-97.669 166.343-99.445l0.247-0.005c4.151-0.061 7.936-1.578 10.879-4.060l-0.026 0.022c2.491 0.983 5.469 1.855 8.541 2.467l0.344 0.057c0.419 4.956 0.659 10.724 0.659 16.55 0 47.715-16.041 91.684-43.023 126.808l0.364-0.493c-42.868 37.016-99.13 59.563-160.659 59.563s-117.791-22.547-160.976-59.83l0.316 0.267c-26.615-34.658-42.652-78.652-42.652-126.392 0-5.798 0.237-11.541 0.7-17.219l-0.049 0.745c3.383-0.676 6.325-1.548 9.152-2.65l-0.368 0.126zM318.866 567.532c-4.637 28.481-7.435 61.499-7.722 95.117l-0.002 0.294c-3.2 2.821-7.428 4.543-12.059 4.543-0.020 0-0.040 0-0.060 0h0.003c-4.583-7.614-7.294-16.803-7.294-26.627 0-3.077 0.266-6.091 0.776-9.023l-0.045 0.313c-0.291-2.444-0.457-5.276-0.457-8.145 0-22.726 10.414-43.019 26.73-56.368l0.129-0.103zM774.164 279.28l-117.169 10.096c0.767-1.947 1.212-4.203 1.212-6.563s-0.445-4.615-1.255-6.688l0.043 0.125c-26.255-72.698-73.967-132.346-135.411-172.857l-1.294-0.802c-2.388-1.193-5.201-1.891-8.178-1.891s-5.791 0.698-8.286 1.94l0.108-0.048c-69.735 35.577-120.596 99.659-137.595 176.469l-0.321 1.732c-0.107 0.738-0.17 1.592-0.17 2.459 0 2.197 0.395 4.302 1.119 6.246l-0.040-0.124-117.018-10.096c-78.902-7.024-140.294-72.815-140.294-152.946 0-73.123 51.125-134.305 119.579-149.752l1.026-0.195c-6.825 15.158-10.801 32.861-10.803 51.491v91.374c0.526 9.698 8.517 17.363 18.3 17.363s17.774-7.665 18.298-17.317l0.002-0.046v-91.373c0.198-50.521 40.985-91.45 91.433-91.877h54.914c50.488 0.427 91.276 41.356 91.473 91.859v18.192c0.526 9.698 8.517 17.363 18.3 17.363s17.774-7.665 18.298-17.317l0.002-0.046v-18.174c0.198-50.521 40.985-91.45 91.433-91.877h54.611c50.488 0.427 91.276 41.356 91.473 91.859v91.391c0.526 9.698 8.517 17.363 18.3 17.363s17.774-7.665 18.298-17.317l0.002-0.046v-91.373c-0.002-18.631-3.978-36.333-11.128-52.304l0.325 0.812c69.496 15.631 120.634 76.819 120.634 149.953 0 80.105-61.352 145.879-139.631 152.897l-0.591 0.042zM611.259 304.521c-7.974 20.954-14.678 45.743-18.959 71.354l-0.324 2.35c-23.095-13.494-50.845-21.462-80.457-21.462-29.253 0-56.69 7.775-80.357 21.373l0.786-0.416c-4.713-28.174-11.519-53.125-20.511-77.007l0.924 2.798c-3.079-8.077-6.108-15.649-9.239-22.212 15.716-61.102 54.872-111.082 107.072-140.768l1.111-0.582c47.886 36.816 85.12 85.231 107.778 141.114l0.809 2.255c-2.777 6.058-5.503 12.621-8.38 20.698v0.505zM724.844 667.992c-4.628-0.44-8.76-2.275-12.045-5.074l0.031 0.026c-0.262-33.889-3.116-66.902-8.373-99.107l0.498 3.695c16.546 13.294 27.046 33.526 27.046 56.212 0 2.962-0.179 5.882-0.527 8.751l0.035-0.345c0.4 2.504 0.629 5.392 0.629 8.333 0 10.119-2.707 19.605-7.435 27.776l0.143-0.267z" />
<glyph unicode="&#xe93b;" glyph-name="top_sites" d="M44.315 124.894c0.191-51.348 41.765-92.922 93.095-93.114h793.476c51.348 0.191 92.922 41.765 93.114 93.095v342.423h-979.685v-342.405zM415.501 249.328v105.812c0.11 4.963 1.365 9.608 3.51 13.715l-0.081-0.172c4.916 8.243 13.787 13.678 23.926 13.678 4.97 0 9.634-1.305 13.669-3.592l-0.138 0.071 91.929-53.329 90.829-52.059c4.342-2.362 7.822-5.828 10.135-10.028l0.065-0.13c2.461-3.985 3.919-8.816 3.919-13.988 0-10.177-5.647-19.035-13.98-23.611l-0.14-0.070-89.686-52.059-1.143-1.27-89.686-52.059c-4.168-2.924-9.346-4.672-14.933-4.672-0.33 0-0.659 0.006-0.986 0.018l0.048-0.001c-15.018 0.306-27.095 12.471-27.257 27.496v106.25zM664.115 698.391l124.858 151.945-132.814-12.274-126-153.214zM437.087 675.959l126 152.792-133.957-13.544-126-151.945zM1019.387 732.25l-5.671 54.599c-4.469 43.626-41.020 77.373-85.454 77.373-2.696 0-5.365-0.124-7.997-0.367l0.338 0.025-38.6-3.386-126-152.792zM130.572 686.117v-41.055l80.417 8.042 126.042 153.214-220.088-21.586c-28.379-2.895-52.365-19.375-65.595-42.748l-0.22-0.423h24.971c0.196 0.003 0.428 0.004 0.659 0.004 29.734 0 53.837-24.103 53.837-53.837 0-0.567-0.009-1.132-0.026-1.694l0.002 0.082zM578.959 497.773l-139.671 139.247h-135.057l140.729-139.247h133.957zM130.572 637.020v-42.747c0-0.038 0-0.082 0-0.127 0-30.74-24.884-55.669-55.607-55.741h-30.65v-40.632h307.614l-140.771 139.247h-80.417zM805.987 497.773l-139.671 139.247h-133.914l139.671-139.247h133.957zM759.43 637.020l140.729-139.247h123.757v139.247h-264.486zM96.501 594.273v91.845c-0.071 11.893-9.693 21.514-21.579 21.586h-53.336c-11.873-0.118-21.467-9.712-21.586-21.575v-91.855c0-0.051-0.001-0.11-0.001-0.17 0-11.827 9.588-21.416 21.416-21.416 0.060 0 0.119 0 0.18 0.001h53.32c0.025 0 0.055 0 0.084 0 11.898 0 21.543 9.645 21.543 21.543 0 0.015 0 0.030 0 0.045v-0.002z" />
<glyph unicode="&#xe93c;" glyph-name="drop_arrow" d="M0.008 663.167c-0.002-0.206-0.003-0.45-0.003-0.695 0-24.455 9.772-46.626 25.624-62.823l-0.016 0.016 425.058-431.203c15.544-16.123 37.33-26.135 61.454-26.135s45.911 10.012 61.429 26.109l0.025 0.026 425.058 431.203c15.702 16.498 25.362 38.872 25.362 63.503s-9.66 47.005-25.398 63.541l0.036-0.038c-15.675 16.641-37.855 27.003-62.455 27.003-24.103 0-45.883-9.946-61.457-25.959l-0.019-0.020-362.579-368.725-362.579 368.725c-15.595 16.033-37.374 25.979-61.477 25.979-24.601 0-46.782-10.362-62.415-26.96l-0.040-0.043c-15.832-15.937-25.616-37.898-25.616-62.143 0-0.478 0.004-0.954 0.011-1.43l-0.001 0.072z" />
<glyph unicode="&#xe93d;" glyph-name="sort" d="M536.275 709.038l-180.002 239.755c-5.886 6.876-14.574 11.207-24.274 11.207s-18.389-4.331-24.238-11.163l-0.037-0.044-180.002-239.755c-3.801-5.011-6.089-11.351-6.089-18.226 0-16.629 13.386-30.133 29.972-30.322h90.393v-569.883c0-16.5 13.376-29.876 29.876-29.876v0h120.251c16.117 0.125 29.133 13.218 29.133 29.352 0 0.184-0.002 0.368-0.005 0.551v-0.028 569.883h91.121c16.603 0.189 29.989 13.693 29.989 30.322 0 6.874-2.287 13.216-6.143 18.302l0.055-0.076zM872.378 236.253h-90.375v569.883c0 16.5-13.376 29.876-29.876 29.876v0h-120.251c-16.5 0-29.876-13.376-29.876-29.876v-569.883h-89.627c-16.857-0.019-30.514-13.689-30.514-30.548 0-6.768 2.201-13.022 5.926-18.085l-0.059 0.085 180.749-239.755c5.508-7.289 14.16-11.951 23.901-11.951s18.392 4.662 23.846 11.875l0.054 0.076 180.002 239.755c3.801 5.011 6.089 11.351 6.089 18.226 0 16.629-13.386 30.133-29.972 30.322h-0.018z" />
<glyph unicode="&#xe93e;" glyph-name="views" d="M1020.792 469.398c-8.509 12.44-187.505 319.475-507.18 319.475s-498.72-307.035-507.23-319.475c-3.999-6.030-6.382-13.436-6.382-21.398s2.382-15.367 6.472-21.543l-0.090 0.145c8.509-12.44 187.555-319.475 507.23-319.475s498.67 307.035 507.18 319.475c2.036 6.401 3.209 13.762 3.209 21.398s-1.174 14.998-3.349 21.915l0.14-0.516zM513.613 235.016c-117.584 0.057-212.884 95.391-212.884 212.984 0 117.627 95.356 212.984 212.984 212.984s212.984-95.356 212.984-212.984v0c0.007-0.625 0.010-1.362 0.010-2.101 0-116.473-94.421-210.894-210.894-210.894-0.774 0-1.546 0.004-2.318 0.012l0.118-0.001zM513.613 575.89c-0.014 0-0.033 0-0.050 0-70.631 0-127.89-57.258-127.89-127.89s57.258-127.89 127.89-127.89c70.631 0 127.89 57.258 127.89 127.89v0c0.014 0.717 0.023 1.563 0.023 2.41 0 69.313-56.189 125.502-125.502 125.502-0.831 0-1.659-0.008-2.486-0.024l0.123 0.002zM556.209 448c-23.455 0.057-42.447 19.084-42.447 42.547 0 23.499 19.049 42.547 42.547 42.547 23.411 0 42.405-18.907 42.547-42.284v-0.013c0.056-0.798 0.089-1.729 0.089-2.668 0-22.207-18.002-40.209-40.209-40.209-0.889 0-1.772 0.029-2.646 0.086l0.119-0.006z" />
<glyph unicode="&#xe93f;" glyph-name="calendar1" horiz-adv-x="1026" d="M481.083 930v-184.341c0-16.569 13.432-30.001 30.001-30.001s30.001 13.432 30.001 30.001v0 184.341c0 16.569-13.432 30.001-30.001 30.001s-30.001-13.432-30.001-30.001v0zM181.005 930v-184.341c0-16.569 13.432-30.001 30.001-30.001s30.001 13.432 30.001 30.001v0 184.341c0 16.569-13.432 30.001-30.001 30.001s-30.001-13.432-30.001-30.001v0zM785.139 930v-184.341c0-16.569 13.432-30.001 30.001-30.001s30.001 13.432 30.001 30.001v0 184.341c0 16.569-13.432 30.001-30.001 30.001s-30.001-13.432-30.001-30.001v0zM361.009 236.008h120.075v-120.003h-120.075v120.003zM181.005 236.008h120.003v-120.003h-120.003v120.003zM541.084 236.008h124.051v-120.003h-124.051v120.003zM181.005 416.012h120.003v-120.003h-120.003v120.003zM361.009 416.012h120.075v-120.003h-120.075v120.003zM0.928 536.015v-510.373c0.205-49.551 40.422-89.641 90.001-89.641 0 0 0.001 0 0.001 0h844.284c0 0 0 0 0.001 0 49.58 0 89.796 40.090 90.001 89.621v510.393h-1024.288zM905.213 85.644c0-0.001 0-0.001 0-0.002 0-16.369-13.27-29.64-29.64-29.64-0.127 0-0.254 0.001-0.381 0.002h-724.191c-0.108-0.001-0.234-0.002-0.361-0.002-16.369 0-29.64 13.27-29.64 29.64 0 0.001 0 0.002 0 0.002v0 360.008c0 0.043 0 0.094 0 0.146 0 16.613 13.406 30.094 29.99 30.217h724.222c16.604-0.164 30.001-13.661 30.001-30.289 0-0.026 0-0.052 0-0.078v0.004-360.008zM725.137 416.012h120.003v-120.003h-120.003v120.003zM541.084 416.012h124.051v-120.003h-124.051v120.003zM725.137 236.008h120.003v-120.003h-120.003v120.003zM935.214 836.023h-30.001v-90.363c0.001-0.169 0.002-0.367 0.002-0.567 0-26.416-11.407-50.166-29.564-66.595l-0.077-0.069c-15.903-13.921-36.865-22.411-59.811-22.411-0.195 0-0.388 0.001-0.583 0.002h0.030c-0.28-0.003-0.61-0.005-0.942-0.005-49.228 0-89.134 39.907-89.134 89.134 0 0.18 0.001 0.359 0.002 0.539v-0.028 90.363h-124.195v-90.363c0.002-0.198 0.002-0.43 0.002-0.663 0-26.372-11.379-50.085-29.494-66.499l-0.076-0.068c-15.942-13.922-36.938-22.411-59.919-22.411-0.182 0-0.363 0.001-0.545 0.002h0.028c-0.258-0.003-0.564-0.004-0.869-0.004-49.228 0-89.134 39.907-89.134 89.134 0 0.18 0.001 0.359 0.002 0.538v-0.028 90.363h-120.075v-90.363c0.004-0.331 0.007-0.721 0.007-1.112 0-26.275-11.481-49.869-29.699-66.038l-0.091-0.080c-15.97-13.923-36.993-22.411-59.999-22.411-0.179 0-0.357 0.001-0.536 0.002h0.028c-0.368-0.006-0.802-0.009-1.237-0.009-48.868 0-88.484 39.616-88.484 88.484 0 0.41 0.003 0.819 0.008 1.227l-0.001-0.062v90.363h-30.072c-49.725-0.082-90.002-40.411-90.002-90.147 0-0.076 0-0.153 0-0.228v0.012-149.642h1024.288v149.642c0 0.065 0 0.141 0 0.217 0 49.685-40.195 89.982-89.842 90.146h-0.016z" />
<glyph unicode="&#xe940;" glyph-name="clock" d="M512.295 960c-0.088 0-0.191 0-0.295 0-282.77 0-512-229.23-512-512s229.23-512 512-512c282.77 0 512 229.23 512 512v0c0 282.666-229.062 511.832-511.689 512h-0.016zM842.808 331.435h-330.513c-23.56 0.042-42.642 19.15-42.642 42.716 0 0.026 0 0.052 0 0.078v-0.004 404.288c0 23.551 19.092 42.642 42.642 42.642s42.642-19.092 42.642-42.642v0-361.499h287.723c0.022 0 0.048 0 0.074 0 23.632 0 42.79-19.158 42.79-42.79 0-23.606-19.116-42.748-42.712-42.79h-0.004z" />
<glyph unicode="&#xe941;" glyph-name="later" d="M511.826 639.884v-223.885c0.031-8.819 3.587-16.802 9.332-22.618l-0.003 0.003 160.168-159.999 45.229 45.229-150.727 150.952v210.316h-63.999zM575.882 895.995c-224.499-0.456-410.233-165.849-442.492-381.421l-0.303-2.463h-133.087l159.942-159.999 159.999 159.999h-122.062c32.038 181.886 188.851 318.301 377.525 318.301 211.545 0 383.035-171.49 383.035-383.035s-171.49-383.035-383.035-383.035c-122.38 0-231.355 57.392-301.478 146.731l-0.628 0.83-50.431-39.575c82.753-105.307 210.119-172.323 353.136-172.323 247.421 0 447.996 200.574 447.996 447.996 0 247.404-200.547 447.969-447.946 447.996h-0.002z" />
<glyph unicode="&#xe942;" glyph-name="top_categories" d="M933.991 837.973h-603.935c-49.71 0-90.008-40.298-90.008-90.008s40.298-90.008 90.008-90.008v0h603.935c49.71 0 90.008 40.298 90.008 90.008s-40.298 90.008-90.008 90.008v0zM933.991 537.817h-603.935c-49.71 0-90.008-40.298-90.008-90.008s40.298-90.008 90.008-90.008v0h603.935c49.71 0 90.008 40.298 90.008 90.008s-40.298 90.008-90.008 90.008v0zM933.991 238.043h-603.935c-49.71 0-90.008-40.298-90.008-90.008s40.298-90.008 90.008-90.008v0h603.935c49.71 0 90.008 40.298 90.008 90.008s-40.298 90.008-90.008 90.008v0zM90.046 837.973c-0.011 0-0.025 0-0.038 0-49.71 0-90.008-40.298-90.008-90.008s40.298-90.008 90.008-90.008c49.71 0 90.008 40.298 90.008 90.008v0c-0.065 49.671-40.302 89.922-89.962 90.008h-0.008zM90.046 537.817c-0.011 0-0.025 0-0.038 0-49.71 0-90.008-40.298-90.008-90.008s40.298-90.008 90.008-90.008c49.71 0 90.008 40.298 90.008 90.008v0c0 0.034 0 0.074 0 0.115 0 49.648-40.247 89.894-89.894 89.894-0.027 0-0.053 0-0.080 0h0.004zM90.046 238.043c-0.011 0-0.025 0-0.038 0-49.71 0-90.008-40.298-90.008-90.008s40.298-90.008 90.008-90.008c49.71 0 90.008 40.298 90.008 90.008v0c-0.065 49.671-40.302 89.922-89.962 90.008h-0.008z" />
<glyph unicode="&#xe943;" glyph-name="en" d="M1024 448c0-282.77-229.23-512-512-512s-512 229.23-512 512c0 282.77 229.23 512 512 512s512-229.23 512-512zM489.8 448h534.2c0 46.2-6.2 91-17.6 133.6h-516.6v-133.6zM489.8 715.2h459.2c-31.4 51.2-71.4 96.4-118.2 133.6h-341v-133.6zM512-64c120.4 0 231.2 41.6 318.8 111.4h-637.6c87.6-69.8 198.4-111.4 318.8-111.4zM75.2 180.8h873.8c25.2 41 44.6 86 57.6 133.6h-989c12.8-47.6 32.4-92.4 57.6-133.6zM237.2 880h46.6l-43.4-31.6 16.6-51-43.4 31.6-43.4-31.6 14.4 44c-38.2-31.8-71.8-69.2-99.4-110.6h15l-27.6-20c-4.4-7.2-8.4-14.4-12.4-21.8l13.2-40.6-24.6 17.8c-6.2-13-11.8-26.2-16.8-39.8l14.6-44.8h53.6l-43.4-31.6 16.6-51-43.4 31.8-26-18.8c-2.6-21-4-42.2-4-63.8h512c0 282.8 0 316.2 0 512-101.2-0.2-195.4-29.6-274.8-80.2zM257 499.2l-43.4 31.6-43.4-31.6 16.6 51-43.4 31.6h53.6l16.6 51 16.6-51h53.6l-43.4-31.6 16.6-51zM240.4 699.4l16.6-51-43.4 31.6-43.4-31.6 16.6 51-43.4 31.6h53.6l16.6 51 16.6-51h53.6l-43.4-31.6zM440.6 499.2l-43.4 31.6-43.4-31.6 16.6 51-43.4 31.6h53.6l16.6 51 16.6-51h53.6l-43.4-31.6 16.6-51zM424 699.4l16.6-51-43.4 31.6-43.4-31.6 16.6 51-43.4 31.6h53.6l16.6 51 16.6-51h53.6l-43.4-31.6zM424 848.6l16.6-51-43.4 31.6-43.4-31.6 16.6 51-43.4 31.4h53.6l16.6 51 16.6-51h53.6l-43.4-31.4z" />
<glyph unicode="&#xe944;" glyph-name="add" d="M841.014 960h-658.029c-101.006-0.136-182.85-81.98-182.986-182.973v-658.042c0.272-100.951 82.035-182.714 182.96-182.986h658.055c101.006 0.136 182.85 81.98 182.986 182.973v658.042c0 0.012 0 0.026 0 0.040 0 101.039-81.908 182.946-182.946 182.946-0.014 0-0.028 0-0.042 0h0.002zM734.739 411.443h-186.181v-186.181c0-20.19-16.368-36.557-36.557-36.557s-36.557 16.368-36.557 36.557v186.181h-186.181c-20.19 0-36.557 16.368-36.557 36.557s16.368 36.557 36.557 36.557h186.181v186.181c0 20.19 16.368 36.557 36.557 36.557s36.557-16.368 36.557-36.557v-186.181h186.181c20.19 0 36.557-16.368 36.557-36.557s-16.368-36.557-36.557-36.557c0 0 0 0 0 0v0z" />
<glyph unicode="&#xe945;" glyph-name="mail" d="M22.786 791.175c150.182-126.705 378.735-350.424 456.070-420.165 8.579-8.396 20.201-13.714 33.061-14.152l0.083-0.002c12.955 0.371 24.597 5.706 33.149 14.159l-0.005-0.005c77.335 69.739 305.888 293.459 456.070 420.165 4.916 4.271 8.006 10.533 8.006 17.517 0 5.395-1.844 10.359-4.936 14.296l0.037-0.051c-16.707 21.306-42.45 34.87-71.361 34.87-0.036 0-0.074 0-0.11 0h-841.704c-28.932-0.049-54.69-13.595-71.319-34.677l-0.147-0.193c-3.055-3.887-4.899-8.851-4.899-14.246 0-6.983 3.090-13.245 7.977-17.492l0.028-0.024zM1010.88 722.471c-2.864 1.348-6.22 2.136-9.761 2.136-5.613 0-10.764-1.978-14.793-5.276l0.041 0.033c-98.050-83.55-192.992-193.338-290.697-277.578-4.873-4.125-7.947-10.245-7.947-17.085 0-0.184 0.002-0.367 0.007-0.55l-0.001 0.027c0.379-6.948 3.638-13.067 8.594-17.232l0.037-0.030c90.8-72.502 192.992-172.623 291.387-243.743 3.755-2.593 8.403-4.143 13.414-4.143 0.018 0 0.035 0 0.054 0h-0.003c0.115-0.002 0.251-0.003 0.386-0.003 3.642 0 7.075 0.895 10.090 2.477l-0.119-0.057c7.4 3.93 12.367 11.562 12.429 20.361v519.949c-0.003 9.096-5.303 16.953-12.982 20.655l-0.138 0.060zM36.251 163.173c98.74 71.121 200.933 171.242 291.387 243.743 5.244 3.995 8.602 10.234 8.631 17.258v0.005c0.004 0.156 0.006 0.339 0.006 0.523 0 6.838-3.073 12.96-7.914 17.057l-0.032 0.027c-97.704 84.24-192.647 194.028-290.697 277.578-3.938 3.229-9.025 5.186-14.571 5.186-12.642 0-22.909-10.172-23.060-22.779v-519.955c0.062-8.808 5.029-16.44 12.303-20.309l0.125-0.061c2.97-1.524 6.479-2.417 10.198-2.417 0.057 0 0.112 0 0.169 0.001h-0.009c0.015 0 0.032 0 0.051 0 5.011 0 9.659 1.55 13.494 4.195l-0.080-0.052zM996.035 101.374c-95.288 68.359-236.493 195.41-341.103 280.34-3.91 3.2-8.962 5.14-14.466 5.14-5.694 0-10.903-2.076-14.911-5.511l0.031 0.026c-20.715-17.952-37.977-33.144-50.060-44.192-16.504-15.707-38.886-25.371-63.525-25.371s-47.022 9.664-63.563 25.407l0.038-0.036c-12.084 11.048-29.346 26.238-50.060 44.192-3.945 3.486-9.161 5.614-14.874 5.614-5.527 0-10.588-1.992-14.505-5.296l0.033 0.027c-104.265-84.586-245.47-211.981-341.103-280.34-5.12-3.786-8.597-9.54-9.313-16.124l-0.009-0.103c-0.101-0.787-0.159-1.696-0.159-2.62 0-5.821 2.297-11.105 6.035-14.995l-0.007 0.007c16.617-17.997 40.301-29.256 66.616-29.346h841.726c26.261 0.118 49.905 11.224 66.589 28.953l0.043 0.048c3.725 4.048 6.009 9.473 6.009 15.432 0 0.888-0.051 1.764-0.15 2.626l0.010-0.105c-0.575 6.73-4.095 12.535-9.253 16.18l-0.069 0.047z" />
<glyph unicode="&#xe946;" glyph-name="print" horiz-adv-x="1025" d="M858.621 734.106h-692.242v155.843c0 0.023 0 0.051 0 0.079 0 38.644 31.328 69.972 69.972 69.972 0.028 0 0.055 0 0.083 0h552.137c0.023 0 0.051 0 0.079 0 38.644 0 69.972-31.328 69.972-69.972 0-0.028 0-0.055 0-0.083v0.004-155.843zM828.711 355.911h-632.424c-16.518 0-29.909-13.391-29.909-29.909v0-319.951c0-0.023 0-0.051 0-0.079 0-38.644 31.328-69.972 69.972-69.972 0.028 0 0.055 0 0.083 0h552.137c0.023 0 0.051 0 0.079 0 38.644 0 69.972 31.328 69.972 69.972 0 0.028 0 0.055 0 0.083v-0.004 319.951c0 16.518-13.391 29.909-29.909 29.909v0zM712.616 56.031h-400.234c-16.518 0-29.909 13.391-29.909 29.909s13.391 29.909 29.909 29.909h400.234c16.518 0 29.909-13.391 29.909-29.909s-13.391-29.909-29.909-29.909v0zM712.616 176.061h-400.234c-16.518 0-29.909 13.391-29.909 29.909s13.391 29.909 29.909 29.909h400.234c16.518 0 29.909-13.391 29.909-29.909s-13.391-29.909-29.909-29.909v0zM954.645 673.894h-884.292c-0.059 0-0.128 0-0.197 0-38.51 0-69.742-31.163-69.853-69.646v-432.515c0.112-38.494 31.344-69.657 69.853-69.657 0.069 0 0.139 0 0.208 0h36.195v223.926c0 0.024 0 0.051 0 0.079 0 49.619 40.134 89.863 89.711 90.042h632.441c49.683-0.223 89.899-40.439 90.122-90.101v-223.947h35.812c0.059 0 0.128 0 0.197 0 38.51 0 69.742 31.163 69.853 69.646v432.515c-0.112 38.494-31.344 69.657-69.853 69.657-0.069 0-0.139 0-0.208 0h0.011zM864.523 484.206c-16.518 0-29.909 13.391-29.909 29.909s13.391 29.909 29.909 29.909v0c16.518 0 29.909-13.391 29.909-29.909s-13.391-29.909-29.909-29.909v0z" />
<glyph unicode="&#xe947;" glyph-name="twitter" d="M1024 764.999c-35.106-15.848-75.837-27.563-118.503-33.118l-2.197-0.233c43.364 26.201 75.949 66.509 91.692 114.454l0.421 1.481c-38.314-23.075-82.897-40.702-130.374-50.36l-2.713-0.461c-38.322 40.899-92.671 66.382-152.971 66.382-115.673 0-209.445-93.771-209.445-209.445 0-0.066 0-0.132 0-0.198v0.010c-0.003-0.414-0.005-0.903-0.005-1.394 0-16.393 1.853-32.352 5.362-47.68l-0.275 1.429c-174.698 8.728-328.381 91.846-431.122 218.081l-0.855 1.084c-17.969-30.299-28.588-66.79-28.588-105.76 0-72.363 36.615-136.175 92.329-173.919l0.737-0.471c-34.871 1.005-67.334 10.417-95.711 26.27l1.057-0.542v-2.223c0.060-101.017 71.333-185.371 166.332-205.579l1.377-0.245c-15.867-4.444-34.088-6.998-52.904-6.998-0.719 0-1.437 0.004-2.155 0.011l0.109-0.001c-0.734-0.011-1.599-0.017-2.467-0.017-13.185 0-26.044 1.395-38.437 4.043l1.2-0.215c27.841-83.927 104.622-143.818 195.712-146.105l0.266-0.005c-70.916-55.653-161.444-89.252-259.82-89.254h-0.001c-1.155-0.013-2.519-0.020-3.885-0.020-16.321 0-32.397 1.046-48.167 3.075l1.866-0.197c90.143-58.952 200.541-94.023 319.13-94.023 0.813 0 1.626 0.002 2.438 0.005h-0.126c385.603 0 596.192 319.218 596.192 596.192 0 9.211-0.318 18.105-0.635 26.999 41.535 29.966 76.449 66.093 104.184 107.439l0.952 1.508z" />
<glyph unicode="&#xe948;" glyph-name="facebook" d="M896.046 960h-768.095c-0.023 0-0.050 0-0.077 0-70.623 0-127.874-57.251-127.874-127.874 0-0.027 0-0.054 0-0.082v0.004-768.095c0.088-70.63 57.321-127.864 127.943-127.952h383.863v352.156h-127.952v160.036h127.952v127.952c0.022 105.897 85.874 191.734 191.772 191.734 0.123 0 0.245 0 0.368 0h127.933v-159.65h-64.169c-35.177 0-63.783 3.092-63.783-32.085v-127.952h160.036l-64.169-160.036h-95.867v-352.156h192.121c70.577 0.219 127.732 57.374 127.952 127.931v768.116c-0.088 70.63-57.321 127.864-127.943 127.952h-0.008z" />
<glyph unicode="&#xe949;" glyph-name="upload1" horiz-adv-x="1068" d="M809.887 662.417l-249.375 284.917c-6.596 7.436-16.14 12.13-26.783 12.236h-0.019c-10.636-0.236-20.138-4.895-26.774-12.205l-0.028-0.031-248.793-284.917c-5.849-6.234-9.442-14.646-9.442-23.896 0-19.308 15.652-34.96 34.96-34.96 0.247 0 0.494 0.003 0.738 0.008l-0.037-0.001h142.75v-346.678c0.066-19.602 15.94-35.476 35.535-35.542h142.173c19.602 0.066 35.476 15.94 35.542 35.535v346.684h142.75c19.593 0.090 35.441 15.995 35.441 35.6 0 8.907-3.271 17.050-8.677 23.293l0.038-0.045zM925.253 292.433v-213.251h-783.086v213.251h-142.167v-284.335c-0.001-0.156-0.002-0.34-0.002-0.525 0-39.271 31.819-71.11 71.082-71.142h925.256c0.017 0 0.038 0 0.058 0 39.548 0 71.608 32.060 71.608 71.608 0 0.021 0 0.041 0 0.062v-0.003 284.335h-142.75z" />
<glyph unicode="&#xe94a;" glyph-name="search1" d="M991.293 27.675l-243.614 254.945c59.644 71.091 95.875 163.576 95.875 264.524 0 228.014-184.842 412.855-412.855 412.855s-412.855-184.842-412.855-412.855c0-228.014 184.842-412.855 412.855-412.855 0.263 0 0.525 0 0.788 0.001h-0.041c0.439-0.002 0.958-0.003 1.477-0.003 88.13 0 169.678 28.18 236.126 76.021l-1.2-0.822 245.674-257.005c9.796-10.103 23.468-16.399 38.613-16.481h0.015c29.867 0.187 54.007 24.442 54.007 54.336 0 14.474-5.659 27.627-14.887 37.366l0.023-0.024zM431.445 856.889c0.535 0.003 1.169 0.005 1.803 0.005 169.673 0 307.221-137.548 307.221-307.221s-137.548-307.221-307.221-307.221c-169.673 0-307.221 137.548-307.221 307.221 0 0.089 0 0.177 0 0.266v-0.013c0 0.169-0.001 0.368-0.001 0.568 0 168.875 136.621 305.839 305.366 306.395h0.053z" />
<glyph unicode="&#xe94b;" glyph-name="home1" d="M1011.17 460.063c7.953 8.619 12.83 20.179 12.83 32.879 0 14.659-6.497 27.8-16.769 36.702l-0.061 0.052-457.546 400.013c-9.82 8.334-22.639 13.402-36.642 13.402-14.533 0-27.791-5.459-37.835-14.438l0.055 0.049-459.275-420.261c-9.799-8.89-15.927-21.673-15.927-35.887 0-13.128 5.228-25.037 13.715-33.755l-0.010 0.011 11.556-11.852c9.2-10.255 22.495-16.677 37.289-16.677 12.027 0 23.062 4.243 31.69 11.316l-0.088-0.070 34.273 30.618v-449.397c0 0 0 0 0 0 0-27.547 22.331-49.879 49.879-49.879 0.034 0 0.070 0 0.104 0h178.964c0.029 0 0.064 0 0.099 0 27.52 0 49.829 22.309 49.829 49.829 0 0.017 0 0.034 0 0.053v-0.003 314.578h228.551v-314.578c-0.052-0.826-0.081-1.793-0.081-2.766 0-25.978 21.027-47.046 46.99-47.113h189.642c0.029 0 0.064 0 0.099 0 27.547 0 49.879 22.331 49.879 49.879 0 0 0 0 0 0v0 442.978s9.433-7.902 21.136-18.272c4.878-1.975 10.537-3.12 16.463-3.12 16.113 0 30.248 8.471 38.194 21.203l0.11 0.189z" />
<glyph unicode="&#xe94c;" glyph-name="edit1" d="M963.925 899.908c-37.064 37.124-88.301 60.091-144.901 60.091s-107.837-22.966-144.899-60.088l-572.521-572.443c-4.756-4.724-8.311-10.65-10.172-17.284l-0.066-0.277-89.776-322.878c-0.995-3.314-1.568-7.123-1.568-11.065 0-11.070 4.514-21.086 11.802-28.306l0.003-0.003c7.325-7.128 17.312-11.555 28.331-11.655h0.019c3.954 0.082 7.74 0.652 11.347 1.652l-0.322-0.076 322.878 91.745c13.608 3.905 24.036 14.595 27.504 28.077l0.060 0.273c0.944 3.181 1.487 6.835 1.487 10.618 0 10.874-4.489 20.7-11.715 27.726l-0.009 0.009-203.964 204.279 474.867 474.474 176.402-176.481-363.041-362.253c-7.385-7.165-11.968-17.183-11.968-28.271s4.583-21.106 11.958-28.262l0.010-0.010c7.136-7.193 17.027-11.647 27.956-11.647s20.82 4.453 27.954 11.644l0.003 0.003 432.342 430.688c37.101 37.060 60.051 88.281 60.051 144.862s-22.95 107.801-60.049 144.86l-0.002 0.002zM286.669 87.83l-189.002-53.708 52.763 190.261zM907.225 666.885l-11.812-11.97-176.402 176.56 11.812 11.891c22.576 22.566 53.758 36.522 88.201 36.522 68.905 0 124.763-55.858 124.763-124.763 0-34.462-13.973-65.661-36.561-88.24v0z" />
<glyph unicode="&#xe94d;" glyph-name="private1" horiz-adv-x="878" d="M838.216 235.778c21.859 0.247 39.484 18.025 39.484 39.92 0 0.104 0 0.207-0.001 0.311v-0.016 147.696c0.006 0.525 0.010 1.145 0.010 1.766 0 86.801-69.831 157.292-156.379 158.358l-0.101 0.001h-47.526v141.116c0 129.826-105.244 235.070-235.070 235.070s-235.070-105.244-235.070-235.070v0-141.116h-46.794c-86.649-1.068-156.48-71.558-156.48-158.359 0-0.621 0.004-1.241 0.011-1.86l-0.001 0.094v-327.563c-0.006-0.525-0.010-1.145-0.010-1.766 0-86.801 69.831-157.292 156.379-158.358l0.101-0.001h564.461c86.649 1.068 156.48 71.558 156.48 158.359 0 0.621-0.004 1.241-0.011 1.86l0.001-0.094c0 21.604-17.514 39.117-39.117 39.117s-39.117-17.514-39.117-39.117v0c0.006-0.35 0.009-0.763 0.009-1.177 0-43.416-34.91-78.68-78.19-79.252l-0.054-0.001h-564.461c-43.335 0.573-78.244 35.835-78.244 79.252 0 0.414 0.003 0.827 0.009 1.239l-0.001-0.062v327.563c-0.006 0.35-0.009 0.763-0.009 1.177 0 43.416 34.91 78.68 78.19 79.252l0.054 0.001h564.461c43.335-0.573 78.244-35.835 78.244-79.252 0-0.414-0.003-0.827-0.009-1.239l0.001 0.062v-147.696c-0.002-0.134-0.003-0.293-0.003-0.452 0-21.608 17.231-39.192 38.702-39.761l0.053-0.001zM595.469 583.813h-312.939v141.116c0 86.416 70.054 156.47 156.47 156.47s156.47-70.054 156.47-156.47v0-141.116zM438.999 305.97c21.859-0.247 39.484-18.025 39.484-39.92 0-0.104 0-0.207-0.001-0.311v0.016c0-21.806-17.677-39.483-39.483-39.483s-39.483 17.677-39.483 39.483v0c-0.001 0.088-0.001 0.191-0.001 0.295 0 21.894 17.625 39.672 39.461 39.919h0.023z" />
<glyph unicode="&#xe94e;" glyph-name="videos1" d="M199.825 440.003c21.952-0.084 39.715-17.899 39.715-39.863 0-22.016-17.847-39.863-39.863-39.863-21.887 0-39.654 17.639-39.861 39.477v0.020c-0.001 0.109-0.002 0.237-0.002 0.366 0 22.016 17.847 39.863 39.863 39.863 0.052 0 0.104 0 0.156 0h-0.008zM983.842 286.404c0.109-0.001 0.237-0.002 0.366-0.002 21.844 0 39.561 17.667 39.643 39.491v178.477c-0.012 14.73-8.13 27.562-20.135 34.275l-0.199 0.102c-5.598 3.394-12.364 5.402-19.599 5.402-7.722 0-14.91-2.288-20.922-6.223l0.146 0.090-160.914-97.28c-0.428 56.359-29.763 105.775-73.896 134.199l-0.636 0.384c45.583 40.486 74.163 99.25 74.163 164.69 0 121.47-98.471 219.941-219.941 219.941-120.997 0-219.174-97.706-219.936-218.523v-0.073c-18.576 82.833-91.487 143.803-178.638 143.803-100.989 0-182.857-81.868-182.857-182.857 0-54.177 23.561-102.85 60.995-136.334l0.176-0.155c-37.661-29.401-61.65-74.801-61.659-125.804v-343.773c0-0.022 0-0.047 0-0.073 0-88.375 71.6-160.026 159.956-160.11h482.019c88.404 0.083 160.037 71.768 160.037 160.183v0 1.463l161.573-95.817c5.887-3.677 13.038-5.857 20.697-5.857 7.154 0 13.863 1.902 19.65 5.227l-0.192-0.102c12.197 7.137 20.261 20.173 20.261 35.092 0 0.006 0 0.011 0 0.017v-0.001 89.966c0 22.096-17.913 40.009-40.009 40.009s-40.009-17.913-40.009-40.009v0-19.749l-161.573 95.817c-5.945 3.507-13.098 5.579-20.736 5.579-7.108 0-13.797-1.795-19.638-4.955l0.219 0.108c-12.197-7.137-20.261-20.173-20.261-35.092 0-0.006 0-0.011 0-0.017v0.001-71.68c0 0 0-0.001 0-0.001 0-44.281-35.772-80.207-79.994-80.456h-482.035c-44.215 0.29-79.945 36.2-79.945 80.456 0 0.001 0 0.001 0 0.002v0 343.771c0.125 44.058 35.87 79.726 79.945 79.726 0 0 0 0 0 0h482.011c0 0 0 0 0.001 0 44.090 0 79.851-35.659 80.018-79.71v-70.233c0.012-14.73 8.13-27.562 20.135-34.275l0.199-0.102c5.586-3.396 12.341-5.405 19.564-5.405 7.71 0 14.885 2.29 20.882 6.226l-0.144-0.089 161.353 97.28v-107.52c0.083-21.832 17.8-39.498 39.643-39.498 0.077 0 0.154 0 0.232 0.001h-0.012zM182.855 600.186c-56.661 0.125-102.546 46.087-102.546 102.765 0 56.756 46.010 102.766 102.766 102.766 56.627 0 102.557-45.801 102.765-102.38v-0.020c0-0.022 0-0.047 0-0.073 0-56.918-46.141-103.058-103.058-103.058-0.026 0-0.051 0-0.077 0h0.004zM334.042 600.186c19.176 27.663 30.93 61.753 31.74 98.541l0.004 0.202c7.367-38.065 23.7-71.468 46.73-99.093l-0.284 0.351h-78.19zM581.849 600.186c-0.022 0-0.047 0-0.073 0-77.358 0-140.069 62.711-140.069 140.069s62.711 140.069 140.069 140.069c77.358 0 140.069-62.711 140.069-140.069 0-0.129 0-0.257-0.001-0.386v0.020c-0.249-77.158-62.814-139.62-139.988-139.703h-0.008z" />
<glyph unicode="&#xe94f;" glyph-name="send_message1" d="M268.445-63.943c-0.016 0-0.036 0-0.055 0-8.976 0-17.505 1.912-25.204 5.349l0.393-0.157c-23.477 10.713-39.501 33.983-39.501 60.996 0 0.359 0.003 0.718 0.008 1.076l-0.001-0.054v71.379c0.008 0.31 0.012 0.675 0.012 1.041 0 24.488-19.507 44.421-43.829 45.106l-0.063 0.001c-88.957 2.266-160.205 74.918-160.205 164.211 0 1.278 0.015 2.552 0.044 3.823l-0.003-0.189v503.533c-0.026 1.081-0.040 2.355-0.040 3.632 0 89.278 71.256 161.913 159.999 164.135l0.206 0.004h703.556c88.949-2.226 160.205-74.862 160.205-164.139 0-1.277-0.015-2.551-0.044-3.821l0.003 0.189v-293.782c0.047-0.722 0.073-1.566 0.073-2.416 0-22.054-17.878-39.932-39.932-39.932s-39.932 17.878-39.932 39.932c0 0.85 0.027 1.694 0.079 2.531l-0.006-0.115v293.782c0.011 0.506 0.018 1.103 0.018 1.701 0 44.789-35.82 81.211-80.375 82.184l-0.091 0.002h-703.556c-44.646-0.974-80.466-37.396-80.466-82.185 0-0.598 0.006-1.194 0.019-1.789l-0.001 0.089v-503.533c-0.012-0.528-0.019-1.15-0.019-1.774 0-44.789 35.821-81.212 80.377-82.184l0.091-0.002c68.688-1.938 123.632-58.083 123.632-127.061 0-1.045-0.013-2.088-0.038-3.127l0.003 0.154v-30.863l87.030 91.345c40.256 42.635 97.072 69.263 160.112 69.551h332.816c44.647 0.973 80.467 37.396 80.467 82.185 0 0.624-0.007 1.246-0.021 1.866l0.002-0.092c-0.047 0.722-0.073 1.566-0.073 2.416 0 22.054 17.878 39.932 39.932 39.932s39.932-17.878 39.932-39.932c0-0.85-0.027-1.694-0.079-2.531l0.006 0.115c0.026-1.082 0.040-2.356 0.040-3.634 0-89.293-71.248-161.944-159.995-164.207l-0.21-0.004h-332.763c-40.657-0.19-77.255-17.416-103.050-44.902l-0.071-0.076-114.821-120.014c-11.121-12.073-26.972-19.641-44.593-19.746h-0.019zM824.269 708.213c0.003 0.2 0.005 0.436 0.005 0.673 0 22.438-17.883 40.697-40.174 41.305l-0.056 0.001h-544.122c-22.134-1.347-39.574-19.627-39.574-41.979s17.44-40.632 39.456-41.973l0.118-0.006h544.122c22.347 0.609 40.23 18.87 40.23 41.306 0 0.237-0.002 0.473-0.006 0.708v-0.035zM824.269 540.369c0.003 0.2 0.005 0.436 0.005 0.673 0 22.438-17.883 40.697-40.174 41.305l-0.056 0.001h-544.122c-22.134-1.347-39.574-19.627-39.574-41.979s17.44-40.632 39.456-41.973l0.118-0.006h544.122c22.347 0.609 40.23 18.87 40.23 41.306 0 0.237-0.002 0.473-0.006 0.708v-0.035zM664.104 372.159c0.003 0.2 0.005 0.436 0.005 0.673 0 22.438-17.883 40.697-40.174 41.305l-0.056 0.001h-383.957c-22.134-1.347-39.574-19.627-39.574-41.979s17.44-40.632 39.456-41.973l0.118-0.006h383.957c22.35 0.605 40.238 18.867 40.238 41.306 0 0.365-0.005 0.729-0.014 1.092l0.001-0.054z" />
<glyph unicode="&#xe950;" glyph-name="add_friend" d="M474.112 228v180.065h-179.987c-0.53-0.025-1.151-0.039-1.775-0.039-22.1 0-40.015 17.915-40.015 40.015s17.915 40.015 40.015 40.015c0.624 0 1.245-0.014 1.862-0.043l-0.088 0.003h179.987v182.035c0 22.1 17.915 40.015 40.015 40.015s40.015-17.915 40.015-40.015v0-182.035h179.987c0.53 0.025 1.151 0.039 1.775 0.039 22.1 0 40.015-17.915 40.015-40.015s-17.915-40.015-40.015-40.015c-0.624 0-1.245 0.014-1.862 0.043l0.088-0.003h-179.987v-180.065c0-22.1-17.915-40.015-40.015-40.015s-40.015 17.915-40.015 40.015v0zM983.984 258.011c0.024 0 0.052 0 0.081 0 22.056 0 39.936 17.88 39.936 39.936 0 0.139-0.001 0.277-0.002 0.415v-0.021 501.994c-0.269 88.211-71.817 159.621-160.055 159.665h-704.042c-88.285-0.134-159.812-71.689-159.902-159.972v-703.968c0.089-88.307 71.607-159.88 159.884-160.059h704.054c88.362 0.090 159.969 71.697 160.059 160.051v0.009c0 22.1-17.915 40.015-40.015 40.015s-40.015-17.915-40.015-40.015v0c-0.045-44.181-35.848-79.985-80.025-80.030h-704.042c-44.181 0.045-79.985 35.848-80.030 80.025v703.963c0.045 44.181 35.848 79.985 80.025 80.030h704.042c44.181-0.045 79.985-35.848 80.030-80.025v-501.683c-0.001-0.094-0.001-0.204-0.001-0.315 0-22.1 17.915-40.015 40.015-40.015 0 0 0.001 0 0.001 0v0z" />
<glyph unicode="&#xe951;" glyph-name="error1" horiz-adv-x="1172" d="M1158.592 196.752c-6.776 17.37-23.375 29.453-42.797 29.453-25.305 0-45.819-20.513-45.819-45.819 0-6.38 1.304-12.454 3.659-17.973l-0.114 0.299c4.302-10.624 6.798-22.947 6.798-35.853 0-20.734-6.443-39.963-17.435-55.795l0.212 0.323c-17.55-26.050-46.938-42.956-80.274-42.956-0.312 0-0.622 0.001-0.933 0.004h-792.265c-54.227 0.24-98.095 44.255-98.095 98.517 0 19.162 5.47 37.046 14.935 52.175l-0.241-0.414 396.156 642.086c17.59 28.179 48.43 46.649 83.584 46.649s65.994-18.47 83.343-46.236l0.241-0.414 292.999-474.867c8.222-13.189 22.648-21.834 39.095-21.834 25.358 0 45.917 20.557 45.917 45.917 0 8.913-2.539 17.233-6.935 24.276l0.113-0.194-292.999 474.867c-33.969 54.536-93.604 90.294-161.59 90.294s-127.621-35.758-161.125-89.492l-0.466-0.801-396.156-642.086c-17.829-28.42-28.403-62.964-28.403-99.977 0-104.963 85.043-190.063 189.985-190.155h792.322c0.397-0.003 0.864-0.005 1.333-0.005 64.67 0 121.672 32.832 155.247 82.738l0.424 0.668c20.474 29.85 32.698 66.756 32.698 106.516 0 25.24-4.925 49.328-13.867 71.358l0.457-1.272zM585.729 117.834c24.66 0.858 44.324 21.055 44.324 45.845s-19.665 44.987-44.246 45.843l-0.078 0.002c-24.66-0.858-44.324-21.055-44.324-45.845s19.665-44.987 44.246-45.843l0.078-0.002zM631.548 324.148v336.785c0 25.305-20.513 45.819-45.819 45.819s-45.819-20.513-45.819-45.819v-336.993c0.059-25.261 20.55-45.715 45.819-45.715 25.305 0 45.819 20.513 45.819 45.819 0 0.037 0 0.073 0 0.11v-0.006z" />
<glyph unicode="&#xe952;" glyph-name="thank_check1" d="M118.007 121.14c-73.399 87.974-117.961 202.236-117.961 326.906 0 282.745 229.21 511.954 511.954 511.954s511.954-229.21 511.954-511.954c0-93.182-24.894-180.549-68.396-255.814l1.315 2.468c-8.603-14.603-24.248-24.247-42.145-24.247-26.925 0-48.751 21.826-48.751 48.751 0 8.748 2.304 16.958 6.339 24.056l-0.126-0.241c34.124 58.909 54.261 129.604 54.261 205.002 0 228.859-185.527 414.386-414.386 414.386s-414.386-185.527-414.386-414.386c0-228.859 185.527-414.386 414.386-414.386 74.474 0 144.359 19.647 204.755 54.039l-2.044-1.071c6.99 4.105 15.397 6.53 24.37 6.53 26.915 0 48.734-21.819 48.734-48.734 0-18.379-10.174-34.382-25.198-42.684l-0.251-0.127c-72.084-41.259-158.442-65.588-250.482-65.588-123.706 0-237.147 43.95-325.56 117.088l0.857-0.689zM693.856 632.231l-201.248-284.271c-4.693-5.439-11.438-8.996-19.018-9.461l-0.077-0.004c-0.662-0.058-1.432-0.091-2.211-0.091-7.355 0-14.022 2.951-18.88 7.733l0.003-0.003c-0.263 0.18-0.484 0.401-0.658 0.655l-0.006 0.009-129.018 117.727c-8.553 7.568-19.867 12.188-32.259 12.188-26.943 0-48.784-21.841-48.784-48.784 0-13.962 5.865-26.554 15.266-35.446l128.543-117.416c22.477-21.126 52.802-34.13 86.163-34.205h0.015c2.823 0 5.48 0.166 8.303 0.332 36.191 2.524 67.854 20.015 89.15 46.259l0.183 0.233c0.664 0.83 1.328 1.661 1.827 2.325l202.41 285.932c5.589 7.831 8.937 17.597 8.937 28.145 0 26.945-21.843 48.788-48.788 48.788-16.396 0-30.904-8.089-39.75-20.494l-0.101-0.149z" />
<glyph unicode="&#xe953;" glyph-name="close2" d="M847.066-32.699l-332.709 332.709-327.926-327.711c-18.756-18.046-44.294-29.161-72.428-29.161-57.728 0-104.525 46.798-104.525 104.525 0 28.134 11.115 53.672 29.194 72.461l-0.032-0.034 327.855 327.711-336.351 336.279c-18.625 18.643-30.144 44.389-30.144 72.825 0 56.907 46.133 103.041 103.041 103.041 28.471 0 54.246-11.547 72.896-30.215l336.352-336.28 327.855 327.711c18.918 18.927 45.058 30.634 73.931 30.634 57.73 0 104.53-46.8 104.53-104.53 0-28.856-11.692-54.981-30.598-73.896v0l-327.926-327.711 332.709-332.709c19.261-18.74 31.211-44.91 31.211-73.87 0-56.899-46.127-103.026-103.026-103.026-28.978 0-55.162 11.964-73.882 31.223l-0.023 0.024z" />
<glyph unicode="&#xe954;" glyph-name="check2" horiz-adv-x="1438" d="M1295.963 947.69c-8.329 7.632-19.474 12.31-31.713 12.31s-23.384-4.677-31.748-12.342l0.035 0.032-668.229-633.232c-8.128-8.091-19.336-13.093-31.713-13.093s-23.585 5.002-31.714 13.095l0.002-0.002-292.805 283.26c-8.116 7.965-19.142 12.991-31.338 13.341l-0.067 0.002c-0.188 0.003-0.411 0.005-0.633 0.005-12.354 0-23.513-5.111-31.479-13.335l-0.011-0.012-129.315-110.841c-8.167-7.36-13.293-17.958-13.342-29.755v-0.009c0.236-12.090 5.298-22.954 13.332-30.78l0.010-0.009 485.649-477.233c8.128-8.091 19.336-13.093 31.713-13.093s23.585 5.002 31.714 13.095l-0.002-0.002 858.712 815.915c8.065 7.599 13.086 18.351 13.086 30.276s-5.021 22.677-13.066 30.256l-0.021 0.019-127.057 122.131z" />
<glyph unicode="&#xe955;" glyph-name="user1" horiz-adv-x="1026" d="M1023.302 83.016c-3.96 18.379-20.074 31.953-39.36 31.953-22.212 0-40.218-18.006-40.218-40.218 0-2.927 0.313-5.781 0.906-8.531l-0.048 0.265c0.588-2.59 0.924-5.565 0.924-8.618 0-9.929-3.562-19.025-9.478-26.081l0.052 0.063c-7.256-9.605-18.656-15.748-31.491-15.748-0.193 0-0.385 0.001-0.578 0.004h-782.436c-0.163-0.002-0.356-0.004-0.549-0.004-12.834 0-24.233 6.143-31.419 15.648l-0.072 0.099c-5.826 6.981-9.364 16.049-9.364 25.943 0 3.080 0.343 6.081 0.992 8.965l-0.051-0.272c43.3 197.554 214.32 344.115 420.49 349.499l0.578 0.012h21.254c148.084-3.287 277.729-79.323 354.977-193.668l0.99-1.555c7.202-11.46 19.776-18.965 34.104-18.965 22.173 0 40.146 17.974 40.146 40.146 0 8.908-2.901 17.139-7.811 23.799l0.078-0.11c-64.686 95.024-157.476 166.689-266.311 203.582l-3.694 1.087c66.095 50.143 108.343 128.74 108.343 217.204 0 150.164-121.731 271.895-271.895 271.895s-271.895-121.731-271.895-271.895c0-88.926 42.691-167.88 108.694-217.488l0.699-0.503c-64.507-21.113-120.353-52.235-168.805-92.029l0.898 0.716c-89.28-73.916-153.24-175.614-178.685-291.729l-0.638-3.467c-1.676-7.531-2.636-16.181-2.636-25.054 0-29.144 10.358-55.869 27.594-76.694l-0.162 0.201c21.98-27.449 55.489-44.878 93.069-44.878 0.49 0 0.979 0.003 1.467 0.009l-0.074-0.001h782.465c0.414-0.005 0.903-0.008 1.393-0.008 37.58 0 71.089 17.428 92.887 44.642l0.182 0.236c16.923 20.573 27.184 47.183 27.184 76.188 0 8.983-0.984 17.737-2.85 26.158l0.149-0.799zM320.815 687.577c-0.001 0.23-0.002 0.503-0.002 0.776 0 106.21 86.1 192.31 192.31 192.31s192.31-86.1 192.31-192.31c0-102.776-80.622-186.721-182.073-192.042l-0.474-0.020h-19.444c-101.779 5.084-182.404 88.734-182.628 191.264v0.022z" />
<glyph unicode="&#xe956;" glyph-name="comments_arrow" horiz-adv-x="943" d="M917.32 465.93c-15.089-16.123-36.498-26.171-60.255-26.171-24.133 0-45.844 10.368-60.923 26.893l-0.058 0.065-243.257 261.195v-700.191c0.125-1.738 0.197-3.765 0.197-5.81 0-47.447-38.464-85.911-85.911-85.911s-85.911 38.464-85.911 85.911c0 2.045 0.071 4.072 0.212 6.081l-0.015-0.271v691.537l-234.76-252.54c-15.123-16.586-36.821-26.953-60.941-26.953-23.743 0-45.141 10.046-60.172 26.119l-0.043 0.047c-15.712 17.102-25.342 40.009-25.342 65.164 0 24.91 9.442 47.614 24.944 64.728l-0.073-0.082 264.105 283.223c45.116 49.85 110.059 81.036 182.285 81.036s137.169-31.186 182.099-80.826l0.187-0.21 264.105-283.223c15.543-16.985 25.065-39.704 25.065-64.649 0-25.189-9.711-48.109-25.594-65.222l0.056 0.061z" />
<glyph unicode="&#xe957;" glyph-name="comments1" d="M268.308-63.948c-0.27-0.005-0.589-0.007-0.908-0.007-8.578 0-16.716 1.889-24.019 5.274l0.353-0.147c-23.722 10.697-39.935 34.139-39.935 61.366 0 0.204 0.001 0.408 0.003 0.611v-0.031 71.673c0.006 0.278 0.010 0.607 0.010 0.935 0 24.546-19.584 44.517-43.98 45.139l-0.058 0.001c-88.754 2.432-159.774 74.959-159.774 164.074 0 1.353 0.016 2.701 0.049 4.046l-0.004-0.199v503.249c-0.029 1.145-0.045 2.494-0.045 3.847 0 89.116 71.021 161.643 159.55 164.069l0.224 0.005h703.934c88.989-2.209 160.283-74.872 160.283-164.187 0-1.313-0.015-2.622-0.046-3.928l0.004 0.194v-293.86c0.033-0.604 0.051-1.311 0.051-2.023 0-22.082-17.901-39.983-39.983-39.983s-39.983 17.901-39.983 39.983c0 0.712 0.019 1.419 0.055 2.121l-0.004-0.098v293.86c0.017 0.614 0.026 1.337 0.026 2.062 0 44.708-35.818 81.050-80.323 81.897l-0.079 0.001h-703.934c-44.361-1.13-79.891-37.359-79.891-81.887 0-0.729 0.010-1.456 0.028-2.18l-0.002 0.107v-503.249c-0.017-0.617-0.026-1.344-0.026-2.073 0-44.528 35.53-80.757 79.787-81.885l0.105-0.002c69.081-1.703 124.43-58.108 124.43-127.44 0-0.913-0.010-1.824-0.029-2.732l0.002 0.136v-31.229l87.032 91.639c40.179 42.805 97.080 69.505 160.219 69.625h332.279c44.585 0.848 80.402 37.191 80.402 81.898 0 0.725-0.009 1.448-0.028 2.168l0.002-0.107c-0.033 0.604-0.051 1.311-0.051 2.023 0 22.082 17.901 39.983 39.983 39.983s39.983-17.901 39.983-39.983c0-0.712-0.019-1.419-0.055-2.121l0.004 0.098c0.027-1.112 0.042-2.421 0.042-3.734 0-89.315-71.295-161.978-160.079-164.183l-0.204-0.004h-332.257c-0.069 0-0.15 0-0.231 0-40.886 0-77.733-17.296-103.621-44.972l-0.074-0.080-114.165-119.797c-11.186-12.259-27.219-19.931-45.046-19.966h-0.006zM823.776 708.076c0.008 0.309 0.013 0.672 0.013 1.036 0 22.264-17.765 40.379-39.893 40.942l-0.052 0.001h-543.693c-22.304-1.136-39.957-19.496-39.957-41.98s17.654-40.844 39.856-41.976l0.101-0.004h543.693c22.18 0.565 39.945 18.679 39.945 40.944 0 0.364-0.005 0.728-0.014 1.090l0.001-0.054zM823.776 540.155c0.008 0.309 0.013 0.672 0.013 1.036 0 22.264-17.765 40.379-39.893 40.942l-0.052 0.001h-543.693c-22.304-1.136-39.957-19.496-39.957-41.98s17.654-40.844 39.856-41.976l0.101-0.004h543.693c22.18 0.565 39.945 18.679 39.945 40.944 0 0.364-0.005 0.728-0.014 1.090l0.001-0.054zM664.047 372.747c0.008 0.309 0.013 0.672 0.013 1.036 0 22.264-17.765 40.379-39.893 40.942l-0.052 0.001h-383.964c-22.304-1.136-39.957-19.496-39.957-41.98s17.654-40.844 39.856-41.976l0.101-0.004h383.964c22.18 0.565 39.945 18.679 39.945 40.944 0 0.364-0.005 0.728-0.014 1.090l0.001-0.054z" />
<glyph unicode="&#xe958;" glyph-name="share1" horiz-adv-x="1022" d="M850.342 280.355c-0.177 0.001-0.385 0.001-0.593 0.001-52.831 0-100.027-24.12-131.179-61.948l-0.234-0.292-133.513 66.756c-5.145 2.535-11.199 4.018-17.6 4.018-15.657 0-29.241-8.872-36-21.862l-0.107-0.225c-2.693-5.222-4.272-11.395-4.272-17.938 0-15.627 9.006-29.15 22.109-35.664l0.232-0.104 133.513-66.255c-2.482-11.437-3.941-24.6-4.015-38.091v-0.056c0-94.805 76.854-171.659 171.659-171.659s171.659 76.854 171.659 171.659c0 94.805-76.854 171.659-171.659 171.659v0zM850.342 16.843c-50.718 0.029-91.824 41.135-91.853 91.85v0.003c0.002 12.853 2.584 25.101 7.257 36.257l-0.23-0.619c0.97 1.304 1.813 2.792 2.46 4.381l0.049 0.136c1.004 1.505 1.505 3.513 2.509 5.020 16.076 28.014 45.816 46.579 79.89 46.579 50.701 0 91.803-41.101 91.803-91.803s-41.101-91.803-91.803-91.803c-0.030 0-0.059 0-0.089 0h0.005zM850.342 958.96c-94.748-0.143-171.516-76.911-171.659-171.645v-0.014c0.074-13.723 1.532-27.062 4.243-39.939l-0.228 1.291-379.457-190.23c-31.71 37.607-78.85 61.332-131.533 61.332-94.833 0-171.709-76.876-171.709-171.709s76.876-171.709 171.709-171.709c52.409 0 99.334 23.479 130.829 60.494l0.202 0.244 64.247-32.625c5.31-2.844 11.618-4.515 18.315-4.515 15.457 0 28.834 8.9 35.288 21.854l0.103 0.229c2.8 5.291 4.443 11.567 4.443 18.226 0 15.463-8.862 28.856-21.784 35.377l-0.227 0.104-64.247 32.625c2.871 11.858 4.517 25.47 4.517 39.468 0 0.065 0 0.13 0 0.195v-0.010c0.001 0.162 0.001 0.353 0.001 0.544 0 13.698-1.647 27.010-4.754 39.75l0.236-1.145 379.457 190.23c31.718-37.903 79.041-61.837 131.956-61.837 94.833 0 171.709 76.876 171.709 171.709 0 94.815-76.847 171.68-171.655 171.709h-0.003zM171.736 356.145c-50.729 0-91.853 41.124-91.853 91.853s41.124 91.853 91.853 91.853c50.729 0 91.853-41.124 91.853-91.853v0c-0.029-50.718-41.135-91.824-91.85-91.853h-0.003zM850.342 695.448c-50.729 0-91.853 41.124-91.853 91.853s41.124 91.853 91.853 91.853c50.729 0 91.853-41.124 91.853-91.853v0c-0.029-50.718-41.135-91.824-91.85-91.853h-0.003z" />
</font>
</defs>
</svg>
